Kατηγορίες

Traffic at a Glance

Pageviews 109.586

Days in Range 30

Average Daily Pageviews 3.653

From Search Results 10.128

Unique IPs 8.991

Last 30 minutes 113

Today 2.261

Yesterday 3.799

CALL OF HEROES (2016) 720p BluRay DTS x264-ROVERS {ΞΕΧΩΡ.ΥΠΟΤ}

EasyBytez Premium Accounts

Σκηνοθεσία: Benny Chan
Ηθοποιοί: Louis Koo, Ching Wan Lau, Eddie Peng, Jing Wu
Είδος ταινίας: Action
Χώρα παραγωγής: Hong Kong
Μετάφραση: neraida_anna
iMDB: http://www.imdb.com/title/tt5842624/

ΥΠΟΘΕΣΗ

Ο σερίφης ενός μικρού χωριού και η μοναδική αληθινή φωνή του νόμου και της τάξης, ο οποίος θα πρέπει να αποτρέψει τον αφανισμό του χωριού από τον διεφθαρμένο πολέμαρχο.

Spoiler:

Format : Matroska
Format version : Version 4 / Version 2
File size : 5.46 GiB
Duration : 1h 59mn
Overall bit rate : 6 534 Kbps
Encoded date : UTC 2016-12-08 03:30:04
Writing application : mkvmerge v8.3.0 (‘Over the Horizon’) 64bit
Writing library : libebml v1.3.1 + libmatroska v1.4.2
DURATION : 01:54:30.166000000
NUMBER_OF_FRAMES : 1283
NUMBER_OF_BYTES : 28586
_STATISTICS_WRITING_APP : mkvmerge v8.3.0 (‘Over the Horizon’) 64bit
_STATISTICS_WRITING_DATE_UTC : 2016-12-08 03:30:04
_STATISTICS_TAGS : BPS DURATION NUMBER_OF_FRAMES NUMBER_OF_BYTES

Video
ID : 1
Format : AVC
Format/Info : Advanced Video Codec
Format profile : [email protected]
Format settings, CABAC : Yes
Format settings, ReFrames : 5 frames
Codec ID : V_MPEG4/ISO/AVC
Duration : 1h 59mn
Bit rate : 5 025 Kbps
Width : 1 280 pixels
Height : 544 pixels
Display aspect ratio : 2.35:1
Frame rate mode : Constant
Frame rate : 24.000 fps
Color space : YUV
Chroma subsampling : 4:2:0
Bit depth : 8 bits
Scan type : Progressive
Bits/(Pixel*Frame) : 0.301
Stream size : 4.09 GiB (75%)
Writing library : x264 core 148 r2705 3f5ed56
Encoding settings : cabac=1 / ref=5 / deblock=1:0:0 / analyse=0x3:033 / me=umh / subme=7 / psy=1 / psy_rd=1.00:0.00 / mixed_ref=1 / me_range=16 / chroma_me=1 / trellis=1 / 8x8dct=1 / cqm=0 / deadzone=21,11 / fast_pskip=0 / chroma_qp_offset=-2 / threads=12 / lookahead_threads=2 / sliced_threads=0 / nr=0 / decimate=1 / interlaced=0 / bluray_compat=0 / constrained_intra=0 / bframes=3 / b_pyramid=2 / b_adapt=1 / b_bias=0 / direct=1 / weightb=1 / open_gop=0 / weightp=2 / keyint=250 / keyint_min=23 / scenecut=40 / intra_refresh=0 / rc_lookahead=40 / rc=2pass / mbtree=1 / bitrate=5025 / ratetol=1.0 / qcomp=0.60 / qpmin=0 / qpmax=69 / qpstep=4 / cplxblur=20.0 / qblur=0.5 / ip_ratio=1.40 / aq=1:1.00
Language : Chinese
Default : Yes
Forced : No
DURATION : 01:59:42.256000000
NUMBER_OF_FRAMES : 172374
NUMBER_OF_BYTES : 4509478158
_STATISTICS_WRITING_APP : mkvmerge v8.3.0 (‘Over the Horizon’) 64bit
_STATISTICS_WRITING_DATE_UTC : 2016-12-08 03:30:04
_STATISTICS_TAGS : BPS DURATION NUMBER_OF_FRAMES NUMBER_OF_BYTES

Audio
ID : 2
Format : DTS
Format/Info : Digital Theater Systems
Mode : 16
Format settings, Endianness : Big
Codec ID : A_DTS
Duration : 1h 59mn
Bit rate mode : Constant
Bit rate : 1 509 Kbps
Channel(s) : 6 channels
Channel positions : Front: L C R, Side: L R, LFE
Sampling rate : 48.0 KHz
Bit depth : 24 bits
Compression mode : Lossy
Stream size : 1.26 GiB (23%)
Language : Chinese
Default : Yes
Forced : No


ΑΝ ΣΑΣ ΑΡΕΣΕΙ Η ΔΟΥΛΕΙΑ ΜΟΥ ΚΑΙ ΘΕΛΕΤΕ ΝΑ ΜΕ ΣΤΗΡΙΞΕΤΕ,
ΚΑΝΤΕ ΕΝΑ ΛΟΓΑΡΙΑΣΜΟ ΓΙΑ EASYBYTEZ & COOLBYTEZ
ΚΑΙ ΚΑΤΕΒΑΣΤΕ ΣΑΝ PREMIUM ΑΠΟ 20 ΔΙΑΦΟΡΕΤΙΚΟΥΣ HOST.

http://www.easybytez.com/free404761.html

http://coolbytez.com/free1658.html

 

Για Uploaded απο Εδώ. http://ul.to/ref/3276399http://ul.to/ref/3276399


Για να δείτε τα Links, πατήστε ακριβώς από κάτω. στο Show.

Spoiler:

http://paste2.org/6NypmtdB

Αγαπητοί φίλοι πολλές φορές ίσως σε κάποια λίνκ σας βγάζει «Server error»
η προβληματικός πάροχος η σφάλμα plugin έχει λήξει.
Αυτό δεν σημαίνει απαραίτητα ότι τα λίνκ είναι νεκρά. Δοκιμάστε το εξής.
Πάρ΄τε τα λίνκ ή το μονό λίνκ και κατεβάστε το με Browser….Δεξί κλίκ στο λίνκ και άνοιγμα σε νέο παράθυρο…
Θα σας ανοίξει μία καρτελίτσα και εσείς θα πατήσετε αποθήκευση, όχι άνοιγμα…
Αυτόματά το λίνκ θα κατέβει και θα αποθηκευτεί στο φάκελο που εσείς έχετε επιλέξει.

One Response to CALL OF HEROES (2016) 720p BluRay DTS x264-ROVERS {ΞΕΧΩΡ.ΥΠΟΤ}

Αφήστε μια απάντηση

Chat - Μόνο Εγγεγραμμένοι Χρήστες
You must be signed in to post a comment
Mr.Planet
(Παρασκευή, Νοέ 17. 2017 11:24 ΠΜ)
θερμη παρακληση:
οταν βλεπετε νεκρα η προβληματικα λινκς να το γραφεται στο chat για να αντικαταστησω αμεσα…
σας ευχαριστω!!
Mr.Planet
(Παρασκευή, Νοέ 17. 2017 11:22 ΠΜ)
Kαλημερα στην παρεα που ολο πιο πολυ μεγαλώνει.
Mr.Planet
(Σάββατο, Νοέ 11. 2017 07:28 ΜΜ)
To Chat προσφερεται για βοηθεια οχι για να γραφεται ευχαριστω…
george300
(Σάββατο, Νοέ 11. 2017 06:57 ΜΜ)
ευχαριστώ πολύ
billyalex
(Τρίτη, Νοέ 7. 2017 09:47 ΜΜ)
thanx

1 · 2