COME AND FIND ME (2016) BRRip XviD AC3-EVO {ΕΝΣΩΜ.ΥΠΟΤ}

EasyBytez Premium Accounts

ΣΚΗΝΟΘΕΣΙΑ : Zack Whedon
ΣΕΝΑΡΙΟ : Zack Whedon
ΗΘΟΠΟΙΟΙ : Annabelle Wallis, Aaron Paul, Garret Dillahunt
ΕΙΔΟΣ : Drama, Thriller
ΠΡΕΜΙΕΡΑ : 11 November 2016 (USA)
ΜΕΤΑΦΡΑΣΗ : ShitHigh&Watch
Imdb: http://www.imdb.com/title/tt2597768/

Υπόθεση

O Aaron Paul στον ρόλο του David και η Annabelle Wallis στον ρόλο της Claire βρίσκονται σε μια σχέση η οποία μπορεί να χαρακτηριστεί και σαν τέλεια. Η σχέση τους τελειώνει με ένα άδοξο και μυστηριώδη τρόπο αφού η Claire εξαφανίζεται χωρίς ίχνος. Στην προσπάθεια του να την βρει ο David μπλέκει σε επικίνδυνες καταστάσεις καθώς όπως ανακαλύπτει η Claire ζει μια διπλή ζωή…

Spoiler:

Format : AVI
Format/Info : Audio Video Interleave
File size : 1.37 GiB
Duration : 1h 52mn
Overall bit rate : 1 744 Kbps
Writing application : VirtualDubMod 1.5.10.2 (build 2542/release)
Writing library : VirtualDubMod build 2542/release

Video
ID : 0
Format : MPEG-4 Visual
Format profile : Advanced Simple@L5
Format settings, BVOP : 1
Format settings, QPel : No
Format settings, GMC : No warppoints
Format settings, Matrix : Default (H.263)
Muxing mode : Packed bitstream
Codec ID : XVID
Codec ID/Hint : XviD
Duration : 1h 52mn
Bit rate : 1 289 Kbps
Width : 720 pixels
Height : 304 pixels
Display aspect ratio : 2.35:1
Frame rate : 23.976 fps
Color space : YUV
Chroma subsampling : 4:2:0
Bit depth : 8 bits
Scan type : Progressive
Compression mode : Lossy
Bits/(Pixel*Frame) : 0.246
Stream size : 1.01 GiB (74%)
Writing library : XviD 64

Audio
ID : 1
Format : AC-3
Format/Info : Audio Coding 3
Mode extension : CM (complete main)
Format settings, Endianness : Big
Codec ID : 2000
Duration : 1h 52mn
Bit rate mode : Constant
Bit rate : 448 Kbps
Channel(s) : 6 channels
Channel positions : Front: L C R, Side: L R, LFE
Sampling rate : 48.0 KHz
Bit depth : 16 bits
Compression mode : Lossy
Stream size : 359 MiB (26%)
Alignment : Split accross interleaves
Interleave, duration : 64 ms (1.53 video frames)
Interleave, preload duration : 500 ms


ΑΝ ΣΑΣ ΑΡΕΣΕΙ Η ΔΟΥΛΕΙΑ ΜΟΥ ΚΑΙ ΘΕΛΕΤΕ ΝΑ ΜΕ ΣΤΗΡΙΞΕΤΕ,
ΚΑΝΤΕ ΕΝΑ ΛΟΓΑΡΙΑΣΜΟ ΓΙΑ EASYBYTEZ & COOLBYTEZ
ΚΑΙ ΚΑΤΕΒΑΣΤΕ ΣΑΝ PREMIUM ΑΠΟ 20 ΔΙΑΦΟΡΕΤΙΚΟΥΣ HOST.

http://www.easybytez.com/free404761.html

http://coolbytez.com/free1658.html

 

Για Uploaded απο Εδώ. http://ul.to/ref/3276399http://ul.to/ref/3276399


Για να δείτε τα Links, πατήστε ακριβώς από κάτω. στο Show.

Spoiler:

http://paste2.org/3Vkvf1LM

Αγαπητοί φίλοι πολλές φορές ίσως σε κάποια λίνκ σας βγάζει «Server error»
η προβληματικός πάροχος η σφάλμα plugin έχει λήξει.
Αυτό δεν σημαίνει απαραίτητα ότι τα λίνκ είναι νεκρά. Δοκιμάστε το εξής.
Πάρ΄τε τα λίνκ ή το μονό λίνκ και κατεβάστε το με Browser….Δεξί κλίκ στο λίνκ και άνοιγμα σε νέο παράθυρο…
Θα σας ανοίξει μία καρτελίτσα και εσείς θα πατήσετε αποθήκευση, όχι άνοιγμα…
Αυτόματά το λίνκ θα κατέβει και θα αποθηκευτεί στο φάκελο που εσείς έχετε επιλέξει.

Αφήστε μια απάντηση

UserOnline
Users: Admin, 66 Guests, 8 Bots
Τοίχος μηνυμάτων
Απάντησηnick_korokis 16:40
Καλησπέρα πάλι και συγγνώμη για τα greeklish προηγουμένως. Βλέπω πως οι περίοδοι 1 & 2 του Ripper Street δεν υπάρχουν. Μήπως θα μπορούσατε να αναρτήσετε πάλι έστω και για περιορισμένο χρόνο;
Απάντησηnick_korokis 16:24
KALISPERA. VLEPW PWS OI SEASONS 1&2 TOY RIPPER STREET DEN IPARXOYN STO EASYBYTEZ. MIPWS 8A MPOROUSATE NA TA ANARTISETE ESTW KAI GIA PERIORISMENO XRONO; EFXARISTW.-
ΑπάντησηAdmin 27.04 10:31
Λαθος κανεις οι free users κατεβαζουν ως 250ΜΒ οι Registered 512ΜΒ
ΑπάντησηAdmin 27.04 10:06
Kαλημερα στις ταινιες τα rar ειναι 252ΜΒ μονο στα bluRau ειναι πιο μεγαλα τα Rar σε αυτες τις ταινιες αναφερεσαι?
Απάντησηlinospas 26.04 12:57
ΘΑ ΕΧΕΙΣ ΔΕΙ ΟΤΙ ΤΟ easybytez.com ΕΧΕΙ ΚΑΤΕΒΑΣΕΙ ΤΟ ΟΡΙΟ ΓΙΑ FREE USER ΣΕ 300MB ME ΑΠΟΤΕΛΕΣΜΑ ΝΑ ΜΗΝ ΜΠΟΡΩ ΝΑ ΚΑΤΕΒΑΣΩ ΤΑ ΑΥΤΟΤΕΛΗ ΑΡΧΕΙΑ ΠΟΥ ΕΙΝΑΙ 350 ΜΒ. ΑΝ ΜΠΟΡΕΙΣ ΞΕΚΙΝΑ ΝΑ ΤΑ ΣΠΑΣ ΠΑΛΙ.
ΑπάντησηAdmin 18.04 09:08
JohnSarLisbon Χρονια Πολλα. Η σειρα εχει μεταφραστει δυστυχως μεχρι το επεισοδιο 6, δεν υπαρχει μεταφραση για τα υπολοιπα.
ΑπάντησηJohnSarLisbon 16.04 22:19
Καλησπέρα κ Χρόνια Πολλά! Μπορείτε να ανεβάσετε τα υπόλοιπα επεισόδια από Billions? Ευχαριστώ
ΑπάντησηAdmin 09.04 22:38
gsyrros Καλησπερα ψαχνω την ταινια δεν ειναι ευκολο ειναι αρκετα παλια, αν και ελπιχω κατι να βρω.
Απάντησηgsyrros 07.04 15:25
Καλησπέρα στην παρέα. ψάχνω μια ταίνια. Το όνομα αυτής : A DARK TRUTH (2012) Ευχαριστώ….
ΑπάντησηAdmin 29.03 00:49
linospas@ τωρα ειναι οκ.
Απάντησηlinospas 28.03 11:47
ΣΤΟ ONCE UPON A TIME ΔΕΝ ΑΝΟΙΓΕΙ ΤΟ SHOW
Απάντησηstamilia 24.03 19:14
ευχαριστω πολυυυυυυυ
ΑπάντησηAdmin 24.03 19:14
Θα κοιταξω μηπως καταφερω να τι βρω…
Απάντησηstamilia 24.03 19:13
καλησπέρα!!!! μήπως υπάρχει το ελληνικο Η ΡΟΖΑ ΤΗΣ ΣΜΥΡΝΗΣ???
ΑπάντησηAdmin 17.03 10:33
σημερα λογικα ολο ειναι οκ.
ΑπάντησηAdmin 17.03 10:32
καλημερα, χτες υπηρχε θεμα. δοκομαστε να κατεβασετε τα λινκς που χτες σας τα εδειχνε νεκρα.
Απάντησηntari22 11.03 11:06
ευχαριστώ πάρα πολύ. Καλό Σαββατοκύριακο
ΑπάντησηAdmin 10.03 23:47
Aνεβηκαν οι Ρυθμιστες..
Απάντησηamarsof 10.03 19:06
@riper ναι με firefox μπαινω ίσως να φταίει αυτό!!!οκ ευχαριστώ!!!!
ΑπάντησηAdmin 10.03 11:27
Ok ntari22 το ψαχνω ηδη, οταν το βρω θα το ανεβασω.
Only registered user allowed
😉😐😡😈🙂😯🙁🙄😛😳😮😆💡😀👿😥😎😕