COME AND FIND ME (2016) BRRip XviD AC3-EVO {ΕΝΣΩΜ.ΥΠΟΤ}

EasyBytez Premium Accounts

ΣΚΗΝΟΘΕΣΙΑ : Zack Whedon
ΣΕΝΑΡΙΟ : Zack Whedon
ΗΘΟΠΟΙΟΙ : Annabelle Wallis, Aaron Paul, Garret Dillahunt
ΕΙΔΟΣ : Drama, Thriller
ΠΡΕΜΙΕΡΑ : 11 November 2016 (USA)
ΜΕΤΑΦΡΑΣΗ : ShitHigh&Watch
Imdb: http://www.imdb.com/title/tt2597768/

Υπόθεση

O Aaron Paul στον ρόλο του David και η Annabelle Wallis στον ρόλο της Claire βρίσκονται σε μια σχέση η οποία μπορεί να χαρακτηριστεί και σαν τέλεια. Η σχέση τους τελειώνει με ένα άδοξο και μυστηριώδη τρόπο αφού η Claire εξαφανίζεται χωρίς ίχνος. Στην προσπάθεια του να την βρει ο David μπλέκει σε επικίνδυνες καταστάσεις καθώς όπως ανακαλύπτει η Claire ζει μια διπλή ζωή…

Spoiler:

Format : AVI
Format/Info : Audio Video Interleave
File size : 1.37 GiB
Duration : 1h 52mn
Overall bit rate : 1 744 Kbps
Writing application : VirtualDubMod 1.5.10.2 (build 2542/release)
Writing library : VirtualDubMod build 2542/release

Video
ID : 0
Format : MPEG-4 Visual
Format profile : Advanced Simple@L5
Format settings, BVOP : 1
Format settings, QPel : No
Format settings, GMC : No warppoints
Format settings, Matrix : Default (H.263)
Muxing mode : Packed bitstream
Codec ID : XVID
Codec ID/Hint : XviD
Duration : 1h 52mn
Bit rate : 1 289 Kbps
Width : 720 pixels
Height : 304 pixels
Display aspect ratio : 2.35:1
Frame rate : 23.976 fps
Color space : YUV
Chroma subsampling : 4:2:0
Bit depth : 8 bits
Scan type : Progressive
Compression mode : Lossy
Bits/(Pixel*Frame) : 0.246
Stream size : 1.01 GiB (74%)
Writing library : XviD 64

Audio
ID : 1
Format : AC-3
Format/Info : Audio Coding 3
Mode extension : CM (complete main)
Format settings, Endianness : Big
Codec ID : 2000
Duration : 1h 52mn
Bit rate mode : Constant
Bit rate : 448 Kbps
Channel(s) : 6 channels
Channel positions : Front: L C R, Side: L R, LFE
Sampling rate : 48.0 KHz
Bit depth : 16 bits
Compression mode : Lossy
Stream size : 359 MiB (26%)
Alignment : Split accross interleaves
Interleave, duration : 64 ms (1.53 video frames)
Interleave, preload duration : 500 ms


ΑΝ ΣΑΣ ΑΡΕΣΕΙ Η ΔΟΥΛΕΙΑ ΜΟΥ ΚΑΙ ΘΕΛΕΤΕ ΝΑ ΜΕ ΣΤΗΡΙΞΕΤΕ,
ΚΑΝΤΕ ΕΝΑ ΛΟΓΑΡΙΑΣΜΟ ΓΙΑ EASYBYTEZ & COOLBYTEZ
ΚΑΙ ΚΑΤΕΒΑΣΤΕ ΣΑΝ PREMIUM ΑΠΟ 20 ΔΙΑΦΟΡΕΤΙΚΟΥΣ HOST.

http://www.easybytez.com/free404761.html

http://coolbytez.com/free1658.html

 

Για Uploaded απο Εδώ. http://ul.to/ref/3276399http://ul.to/ref/3276399


Για να δείτε τα Links, πατήστε ακριβώς από κάτω. στο Show.

Spoiler:

http://paste2.org/3Vkvf1LM

Αγαπητοί φίλοι πολλές φορές ίσως σε κάποια λίνκ σας βγάζει «Server error»
η προβληματικός πάροχος η σφάλμα plugin έχει λήξει.
Αυτό δεν σημαίνει απαραίτητα ότι τα λίνκ είναι νεκρά. Δοκιμάστε το εξής.
Πάρ΄τε τα λίνκ ή το μονό λίνκ και κατεβάστε το με Browser….Δεξί κλίκ στο λίνκ και άνοιγμα σε νέο παράθυρο…
Θα σας ανοίξει μία καρτελίτσα και εσείς θα πατήσετε αποθήκευση, όχι άνοιγμα…
Αυτόματά το λίνκ θα κατέβει και θα αποθηκευτεί στο φάκελο που εσείς έχετε επιλέξει.

Αφήστε μια απάντηση