Kατηγορίες

Traffic at a Glance

Pageviews 113.467

Days in Range 30

Average Daily Pageviews 3.782

From Search Results 11.116

Unique IPs 8.705

Last 30 minutes 3

Today 355

Yesterday 3.700

BROOKLYN (2015) BRRip XviD AC3-EVO {ΕΝΣΩΜ.ΥΠΟΤ}

Είδος: Drama, Romance
Πρεμιέρα: 31 December 2015 (Greece)
Σκηνοθεσία: John Crowley
Σενάριο: Nick Hornby (screenplay), Colm Toibin
Ηθοποιοί: Saoirse Ronan, Emory Cohen, Domhnall Gleeson
Απόδοση Διαλόγων: Τzo (Big Thx)
iMDB: http://www.imdb.com/title/tt2381111/

Υπόθεση: Ιρλανδία, δεκαετία του ’50. Το μόνο που έχει να περιμένει από τη ζωή της η Έιλι είναι τον ατέρμονο κακό καιρό, το κουτσομπολιό στο μαγαζί της γωνίας και έναν καλό γαμπρό. Έτσι, με την πρώτη ευκαιρία αναχωρεί για να ζήσει το μεγάλο όνειρο στο Μπρούκλιν. Εκεί θα γνωρίσει έναν νέο λαμπερό κόσμο, αλλά και τον έρωτα, στο πρόσωπο του νεαρού Τόνι. Μια οικογενειακή τραγωδία θα την φέρει πίσω στην Ιρλανδία, όπου θα γνωρίσει τον Τζιμ, ο οποίος θα την ερωτευτεί. Η Έιλις θα πρέπει να διαλέξει ανάμεσα σε δύο χώρες και δύο άνδρες, ανάμεσα στο καθήκον και την πραγματική αγάπη.

Spoiler:

Format : AVI
Format/Info : Audio Video Interleave
File size : 1.38 GiB
Duration : 1h 51mn
Overall bit rate : 1 769 Kbps
Writing application : VirtualDubMod 1.5.10.2 (build 2542/release)
Writing library : VirtualDubMod build 2542/release

Video
ID : 0
Format : MPEG-4 Visual
Format profile : Advanced [email protected]
Format settings, BVOP : 1
Format settings, QPel : No
Format settings, GMC : No warppoints
Format settings, Matrix : Default (H.263)
Muxing mode : Packed bitstream
Codec ID : XVID
Codec ID/Hint : XviD
Duration : 1h 51mn
Bit rate : 1 377 Kbps
Width : 720 pixels
Height : 384 pixels
Display aspect ratio : 1.85:1
Frame rate : 23.976 fps
Color space : YUV
Chroma subsampling : 4:2:0
Bit depth : 8 bits
Scan type : Progressive
Compression mode : Lossy
Bits/(Pixel*Frame) : 0.208
Stream size : 1.08 GiB (78%)
Writing library : XviD 64

Audio
ID : 1
Format : AC-3
Format/Info : Audio Coding 3
Mode extension : CM (complete main)
Format settings, Endianness : Big
Codec ID : 2000
Duration : 1h 51mn
Bit rate mode : Constant
Bit rate : 384 Kbps
Channel(s) : 6 channels
Channel positions : Front: L C R, Side: L R, LFE
Sampling rate : 48.0 KHz
Bit depth : 16 bits
Compression mode : Lossy
Stream size : 308 MiB (22%)
Alignment : Split accross interleaves
Interleave, duration : 64 ms (1.53 video frames)
Interleave, preload duration : 500 ms


ΑΝ ΣΑΣ ΑΡΕΣΕΙ Η ΔΟΥΛΕΙΑ ΜΟΥ ΚΑΙ ΘΕΛΕΤΕ ΝΑ ΜΕ ΣΤΗΡΙΞΕΤΕ,
ΚΑΝΤΕ ΕΝΑ ΛΟΓΑΡΙΑΣΜΟ ΓΙΑ EASYBYTEZ & UPLOADED
ΚΑΙ ΚΑΤΕΒΑΣΤΕ ΣΑΝ PREMIUM ΑΠΟ 20 ΔΙΑΦΟΡΕΤΙΚΟΥΣ HOST.

http://www.easybytez.com/free404761.html

EasyBytez Premium Accounts

Για Uploaded απο Εδώ. http://ul.to/ref/3276399


Links Easybytez & Uploaded

Spoiler:

http://paste2.org/NaxZjpEx

Αγαπητοί φίλοι πολλές φορές ίσως σε κάποια λίνκ σας βγάζει «Server error»
η προβληματικός πάροχος η σφάλμα plugin έχει λήξει.
Αυτό δεν σημαίνει απαραίτητα ότι τα λίνκ είναι νεκρά. Δοκιμάστε το εξής.
Πάρ΄τε τα λίνκ ή το μονό λίνκ και κατεβάστε το με Browser….Δεξί κλίκ στο λίνκ και άνοιγμα σε νέο παράθυρο…
Θα σας ανοίξει μία καρτελίτσα και εσείς θα πατήσετε αποθήκευση, όχι άνοιγμα…
Αυτόματά το λίνκ θα κατέβει και θα αποθηκευτεί στο φάκελο που εσείς έχετε επιλέξει.

One Response to BROOKLYN (2015) BRRip XviD AC3-EVO {ΕΝΣΩΜ.ΥΠΟΤ}

Αφήστε μια απάντηση

Chat - Μόνο Εγγεγραμμένοι Χρήστες
You must be signed in to post a comment
Mr.Planet
(Τρίτη, Ιαν 16. 2018 11:51 ΜΜ)
καλως ηρθες στην παρεα μας panosdoum
panosdoum
(Τρίτη, Ιαν 16. 2018 10:15 ΜΜ)
οκ το βρηκα
panosdoum
(Τρίτη, Ιαν 16. 2018 10:07 ΜΜ)
καλησπέρα είμαι καινούργιος στο site δεν γνωρίζω πως κατεβάζετε
stamilia
(Τρίτη, Ιαν 16. 2018 12:25 ΠΜ)
σε ευχαριστω πολυ
stamilia
(Δευτέρα, Ιαν 15. 2018 09:37 ΜΜ)
Indiana Jones and the Kingdom of the Crystal Skull μήπως μπορουμε να βρούμε κάτι γιαυτό?
Mr.Planet: σε λιγο θα ανεβει.

1 · 2 · 3 · 4 · 5