Kατηγορίες

Traffic at a Glance

Pageviews 106.294

Days in Range 30

Average Daily Pageviews 3.543

From Search Results 9.760

Unique IPs 8.661

Last 30 minutes 46

Today 592

Yesterday 4.310

PIRATES OF THE CARIBBEAN: DEAD MEN TELL NO TALES / ΟΙ ΠΕΙΡΑΤEΣ ΤΗΣ ΚΑΡΑIΒΙΚHΣ: Η ΕΚΔIΚΗΣΗ ΤΟΥ ΣΑΛΑΖAΡ (2017) 720p BluRay X264-AMIABLE {ΞΕΧΩΡ.ΥΠΟΤ}

 

 

Ελληνικός Τίτλος: Οι πειρατές της Καραϊβικής: Η εκδίκηση του Σαλαζάρ
Αυθεντικός Τίτλος: Pirates of the Caribbean: Dead Men Tell No Tales
Γνωστό κι ως: Pirates of the Caribbean: Salazar`s Revenge
Είδος Ταινίας: Action, Adventure, Fantasy
Πρεμιέρα στην Ελλάδα: Πεμ 25 Μαϊ 2017
Σκηνοθέτης: Joachim R?nning, Espen Sandberg
Σενάριο: Jeff Nathanson (screenplay), Jeff Nathanson (story by)
Ηθοποιοί: Jeff Nathanson (screenplay), Jeff Nathanson (story by)
Υπότιτλοι: Eλληνικοί, Ξεχωριστοί
Μετάφραση: ShitHigh&watch
IMDB : http://www.imdb.com/title/tt1790809/

Υπόθεση

Ο Johnny Depp επιστρέφει στη μεγάλη οθόνη με το ρόλο του θρυλικού παληκαρά αντι-ήρωα Τζακ Σπάροου στην ολοκαίνουργια ταινία “Οι Πειρατές της Καραϊβικής: H Εκδίκηση του Σαλαζάρ». H φαντασμαγορική περιπέτεια βρίσκει τον άτυχο Καπετάνιο Τζακ με τους ανέμους της συμφοράς να φυσούν κατά πάνω του, όταν ναυτικοί-φαντάσματα με αρχηγό τον τρομακτικό Καπετάνιο Σαλαζάρ (Javier Bardem), το σκάνε από το Τρίγωνο του Διαβόλου με σκοπό να σκοτώσουν κάθε πειρατή στη θάλασσα – ειδικά τον Τζακ. H μόνη ελπίδα να σωθεί ο Τζακ είναι η θρυλική τρίαινα του Ποσειδώνα. Για να την βρει, θα χρειαστεί να συνεργαστεί με την Carina Smyth (Kaya Scodelario), μια πανέξυπνη και όμορφη αστρονόμο και τον Henry (Brenton Thwaites), έναν ξεροκέφαλο νεαρό ναυτικό της Βασιλικής Ναυτικής Ακαδημίας. Στο τιμόνι του Νεκρού Γλάρου, του θλιβερά μικρού και σκοροφαγωμένου πλοίου του, ο Τζακ αγωνίζεται να αλλάξει τη δυσοίωνη μοίρα του, αλλά και να σώσει τη ζωή του από τον πιο επικίνδυνο και μοχθηρό εχθρό που αντιμετώπισε ποτέ.

Spoiler:

Format : Matroska
Format version : Version 4 / Version 2
File size : 6.56 GiB
Duration : 2h 9mn
Overall bit rate : 7 271 Kbps
Encoded date : UTC 2010-02-22 21:41:29
Writing application : no_variable_data
Writing library : no_variable_data

Video
ID : 1
Format : AVC
Format/Info : Advanced Video Codec
Format profile : [email protected]
Format settings, CABAC : Yes
Format settings, ReFrames : 5 frames
Codec ID : V_MPEG4/ISO/AVC
Duration : 2h 9mn
Bit rate : 5 760 Kbps
Width : 1 280 pixels
Height : 536 pixels
Display aspect ratio : 2.40:1
Frame rate mode : Constant
Frame rate : 23.976 fps
Color space : YUV
Chroma subsampling : 4:2:0
Bit depth : 8 bits
Scan type : Progressive
Bits/(Pixel*Frame) : 0.350
Stream size : 5.07 GiB (77%)
Writing library : x264 core 152 r2851 ba24899
Encoding settings : cabac=1 / ref=5 / deblock=1:-3:-3 / analyse=0x3:0x113 / me=umh / subme=8 / psy=1 / psy_rd=1.00:0.00 / mixed_ref=1 / me_range=24 / chroma_me=1 / trellis=1 / 8x8dct=1 / cqm=0 / deadzone=21,11 / fast_pskip=1 / chroma_qp_offset=-2 / threads=17 / lookahead_threads=2 / sliced_threads=0 / nr=0 / decimate=1 / interlaced=0 / bluray_compat=0 / constrained_intra=0 / bframes=3 / b_pyramid=2 / b_adapt=2 / b_bias=0 / direct=3 / weightb=1 / open_gop=0 / weightp=2 / keyint=240 / keyint_min=24 / scenecut=40 / intra_refresh=0 / rc_lookahead=50 / rc=2pass / mbtree=1 / bitrate=5760 / ratetol=1.0 / qcomp=0.60 / qpmin=0 / qpmax=69 / qpstep=4 / cplxblur=20.0 / qblur=0.5 / ip_ratio=1.40 / aq=3:0.80
Default : Yes
Forced : No
DURATION : 02:09:07.240000000
NUMBER_OF_FRAMES : 185748
NUMBER_OF_BYTES : 5577812442
_STATISTICS_WRITING_APP : no_variable_data
_STATISTICS_WRITING_DATE_UTC : 1970-01-01 00:00:00
_STATISTICS_TAGS : BPS DURATION NUMBER_OF_FRAMES NUMBER_OF_BYTES

Audio
ID : 2
Format : DTS
Format/Info : Digital Theater Systems
Mode : 16
Format settings, Endianness : Big
Codec ID : A_DTS
Duration : 2h 9mn
Bit rate mode : Constant
Bit rate : 1 509 Kbps
Channel(s) : 6 channels
Channel positions : Front: L C R, Side: L R, LFE
Sampling rate : 48.0 KHz
Bit depth : 24 bits
Compression mode : Lossy
Stream size : 1.36 GiB (21%)
Language : English
Default : Yes
Forced : No
DURATION : 02:09:07.243000000
NUMBER_OF_FRAMES : 726304
NUMBER_OF_BYTES : 1461323648
_STATISTICS_WRITING_APP : no_variable_data
_STATISTICS_WRITING_DATE_UTC : 1970-01-01 00:00:00
_STATISTICS_TAGS : BPS DURATION NUMBER_OF_FRAMES NUMBER_OF_BYTES

Text #1
ID : 3
Format : UTF-8
Codec ID : S_TEXT/UTF8
Codec ID/Info : UTF-8 Plain Text
Language : English
Default : No
Forced : No
DURATION : 01:55:13.364000000
NUMBER_OF_FRAMES : 1435
NUMBER_OF_BYTES : 39151
_STATISTICS_WRITING_APP : no_variable_data
_STATISTICS_WRITING_DATE_UTC : 1970-01-01 00:00:00
_STATISTICS_TAGS : BPS DURATION NUMBER_OF_FRAMES NUMBER_OF_BYTES

Text #2
ID : 4
Format : UTF-8
Codec ID : S_TEXT/UTF8
Codec ID/Info : UTF-8 Plain Text
Title : SDH
Language : English
Default : No
Forced : No
DURATION : 02:07:54.167000000
NUMBER_OF_FRAMES : 1772
NUMBER_OF_BYTES : 46849
_STATISTICS_WRITING_APP : no_variable_data
_STATISTICS_WRITING_DATE_UTC : 1970-01-01 00:00:00
_STATISTICS_TAGS : BPS DURATION NUMBER_OF_FRAMES NUMBER_OF_BYTES


ΑΝ ΣΑΣ ΑΡΕΣΕΙ Η ΔΟΥΛΕΙΑ ΜΟΥ ΚΑΙ ΘΕΛΕΤΕ ΝΑ ΜΕ ΣΤΗΡΙΞΕΤΕ,
ΚΑΝΤΕ ΕΝΑ ΛΟΓΑΡΙΑΣΜΟ ΓΙΑ EASYBYTEZ & UPLOADED
ΚΑΙ ΚΑΤΕΒΑΣΤΕ ΣΑΝ PREMIUM ΑΠΟ 20 ΔΙΑΦΟΡΕΤΙΚΟΥΣ HOST.

EasyBytez Premium Accounts

Για Uploaded απο Εδώ. http://ul.to/ref/3276399


Links Easybytez & Uploaded

Spoiler:

https://paste2.org/wwd9w86e

https://pastebin.com/1J8J9jP8

Αγαπητοί φίλοι πολλές φορές ίσως σε κάποια λίνκ σας βγάζει «Server error»
η προβληματικός πάροχος η σφάλμα plugin έχει λήξει.
Αυτό δεν σημαίνει απαραίτητα ότι τα λίνκ είναι νεκρά. Δοκιμάστε το εξής.
Πάρ΄τε τα λίνκ ή το μονό λίνκ και κατεβάστε το με Browser….Δεξί κλίκ στο λίνκ και άνοιγμα σε νέο παράθυρο…
Θα σας ανοίξει μία καρτελίτσα και εσείς θα πατήσετε αποθήκευση, όχι άνοιγμα…
Αυτόματά το λίνκ θα κατέβει και θα αποθηκευτεί στο φάκελο που εσείς έχετε επιλέξει.

2 Responses to PIRATES OF THE CARIBBEAN: DEAD MEN TELL NO TALES / ΟΙ ΠΕΙΡΑΤEΣ ΤΗΣ ΚΑΡΑIΒΙΚHΣ: Η ΕΚΔIΚΗΣΗ ΤΟΥ ΣΑΛΑΖAΡ (2017) 720p BluRay X264-AMIABLE {ΞΕΧΩΡ.ΥΠΟΤ}

Αφήστε μια απάντηση

Chat - Μόνο Εγγεγραμμένοι Χρήστες
You must be signed in to post a comment
DrMakis
(Κυριακή, Δεκ 17. 2017 10:47 ΜΜ)
thanks!
DrMakis
(Κυριακή, Δεκ 17. 2017 12:57 ΜΜ)
Kαλή εβδομάδα Mr.Planet (και σε όλη την παρέα)! από το «How to get away with murder» έχουμε κανένα επισόδειο;
Kαλησπερα DrMakis. το επομενο επεισοδιο θα προβληθη 18 Jan. 2018..
stamilia
(Τετάρτη, Δεκ 6. 2017 09:23 ΜΜ)
http://www.web-planet.co/2017/06/16/the-originals-2013-season-1-ensomipot/
o tetartos kiklos ton original teleionei sto episodio 11?
perimeno neo kyklo h neo episodio?
efharisto poli h doulia sas einai apistefti
stamilia: Aνεβηκαν τα δυο τελευταια επεισοδια.
stamilia
(Τετάρτη, Δεκ 6. 2017 09:22 ΜΜ)
http://www.web-planet.co/2017/02/13/pressure-2015-brrip-xvid-ac3-evo-ensom-ipot/
kalispera!!!!
leei pos den yparhoun ta links!!!
efharisto
LARRYAEK
(Σάββατο, Νοέ 25. 2017 11:20 ΠΜ)
καλημερα σε ολους και καλο σαββ/ριακο.καλημερα Mr.Planet …….
Πολυ καλησπερα LARRYAEK!!!

1