Kατηγορίες

Traffic at a Glance

Pageviews 88.346

Days in Range 30

Average Daily Pageviews 2.945

From Search Results 7.009

Unique IPs 7.238

Last 30 minutes 72

Today 2.469

Yesterday 3.931

ALL I NEED / WAKE IN FEAR (2016) 720p BluRay DTS x264-D3jaVU {ΞΕΧΩΡ.ΥΠΟΤ}

 

 

Είδος Ταινίας: Horror, Thriller
Πρεμιέρα: 21 November 2016
Σκηνοθέτης: Dylan K. Narang
Σενάριο: Dylan K. Narang
Ηθοποιοί: Caitlin Stasey, Markus Taylor, Leah McKendrick
Υπότιτλοι: Ελληνικοί, Ξεχωριστοί
ΜΕΤΑΦΡΑΣΗ : Άγνωστος
iMDB: http://www.imdb.com/title/tt2370228/

Υπόθεση

Τα μονοπάτια ενός απελπισμένου άντρα και μιας αιχμάλωτης κοπέλας διασταυρώνονται κατά τη διάρκεια της δράσης ενός μυστηριώδους δολοφόνου!

Spoiler:

Format : Matroska
Format version : Version 4 / Version 2
File size : 5.64 GiB
Duration : 1h 23mn
Overall bit rate : 9 711 Kbps
Movie name : All.I.Need.2016.720p.BluRay.DTS.x264-D3jaVU
Encoded date : UTC 2017-09-12 16:39:41
Writing application : mkvmerge v8.2.0 (‘World of Adventure’) 64bit
Writing library : libebml v1.3.1 + libmatroska v1.4.2
DURATION : 01:23:06.006000000
NUMBER_OF_FRAMES : 467438
NUMBER_OF_BYTES : 478656512
_STATISTICS_WRITING_APP : mkvmerge v8.2.0 (‘World of Adventure’) 64bit
_STATISTICS_WRITING_DATE_UTC : 2017-09-12 16:39:41
_STATISTICS_TAGS : BPS DURATION NUMBER_OF_FRAMES NUMBER_OF_BYTES

Video
ID : 1
Format : AVC
Format/Info : Advanced Video Codec
Format profile : [email protected]
Format settings, CABAC : Yes
Format settings, ReFrames : 4 frames
Codec ID : V_MPEG4/ISO/AVC
Duration : 1h 23mn
Bit rate : 8 299 Kbps
Width : 1 280 pixels
Height : 674 pixels
Display aspect ratio : 1.899
Frame rate mode : Constant
Frame rate : 23.976 fps
Color space : YUV
Chroma subsampling : 4:2:0
Bit depth : 8 bits
Scan type : Progressive
Bits/(Pixel*Frame) : 0.401
Stream size : 4.71 GiB (84%)
Title : All.I.Need.2016.720p.BluRay.DTS.x264-D3jaVU
Writing library : x264 core 148 r2744 b97ae06
Encoding settings : cabac=1 / ref=3 / deblock=1:0:0 / analyse=0x3:0x133 / me=umh / subme=7 / psy=1 / psy_rd=1.00:0.00 / mixed_ref=1 / me_range=16 / chroma_me=1 / trellis=1 / 8x8dct=1 / cqm=0 / deadzone=21,11 / fast_pskip=0 / chroma_qp_offset=-2 / threads=16 / lookahead_threads=2 / sliced_threads=0 / slices=4 / nr=0 / decimate=1 / interlaced=0 / bluray_compat=0 / constrained_intra=0 / bframes=3 / b_pyramid=2 / b_adapt=1 / b_bias=0 / direct=1 / weightb=1 / open_gop=1 / weightp=2 / keyint=240 / keyint_min=23 / scenecut=40 / intra_refresh=0 / rc_lookahead=40 / rc=2pass / mbtree=1 / bitrate=8299 / ratetol=1.0 / qcomp=0.60 / qpmin=0 / qpmax=69 / qpstep=4 / cplxblur=20.0 / qblur=0.5 / vbv_maxrate=50000 / vbv_bufsize=50000 / nal_hrd=none / filler=0 / ip_ratio=1.40 / aq=1:1.00
Language : English
Default : Yes
Forced : No

Audio #1
ID : 2
Format : DTS
Format/Info : Digital Theater Systems
Mode : 16
Format settings, Endianness : Big
Codec ID : A_DTS
Duration : 1h 23mn
Bit rate mode : Constant
Bit rate : 768 Kbps
Channel(s) : 6 channels
Channel positions : Front: L C R, Side: L R, LFE
Sampling rate : 48.0 KHz
Bit depth : 24 bits
Compression mode : Lossy
Stream size : 456 MiB (8%)
Title : English Audio / DTS / 5.1 / 768 kbps / 48 KHz / 24 bits
Language : English
Default : Yes
Forced : No

Audio #2
ID : 3
Format : AC-3
Format/Info : Audio Coding 3
Mode extension : CM (complete main)
Format settings, Endianness : Big
Codec ID : A_AC3
Duration : 1h 23mn
Bit rate mode : Constant
Bit rate : 640 Kbps
Channel(s) : 6 channels
Channel positions : Front: L C R, Side: L R, LFE
Sampling rate : 48.0 KHz
Bit depth : 16 bits
Compression mode : Lossy
Stream size : 380 MiB (7%)
Title : English Audio / Dolby Digital / 5.1 / 640 kbps / 48 KHz / 16 bits
Language : English
Default : No
Forced : No


ΑΝ ΣΑΣ ΑΡΕΣΕΙ Η ΔΟΥΛΕΙΑ ΜΟΥ ΚΑΙ ΘΕΛΕΤΕ ΝΑ ΜΕ ΣΤΗΡΙΞΕΤΕ,
ΚΑΝΤΕ ΕΝΑ ΛΟΓΑΡΙΑΣΜΟ ΓΙΑ EASYBYTEZ & UPLOADED
ΚΑΙ ΚΑΤΕΒΑΣΤΕ ΣΑΝ PREMIUM ΑΠΟ 20 ΔΙΑΦΟΡΕΤΙΚΟΥΣ HOST.

EasyBytez Premium Accounts

Για Uploaded απο Εδώ. http://ul.to/ref/3276399


Links Easybytez & Uploaded

Spoiler:

https://paste2.org/39NhZ4Px

https://pastebin.com/mF232Gq6

Αγαπητοί φίλοι πολλές φορές ίσως σε κάποια λίνκ σας βγάζει «Server error»
η προβληματικός πάροχος η σφάλμα plugin έχει λήξει.
Αυτό δεν σημαίνει απαραίτητα ότι τα λίνκ είναι νεκρά. Δοκιμάστε το εξής.
Πάρ΄τε τα λίνκ ή το μονό λίνκ και κατεβάστε το με Browser….Δεξί κλίκ στο λίνκ και άνοιγμα σε νέο παράθυρο…
Θα σας ανοίξει μία καρτελίτσα και εσείς θα πατήσετε αποθήκευση, όχι άνοιγμα…
Αυτόματά το λίνκ θα κατέβει και θα αποθηκευτεί στο φάκελο που εσείς έχετε επιλέξει.

Αφήστε μια απάντηση

Chat - Μόνο Εγγεγραμμένοι Χρήστες
You must be signed in to post a comment
glukiakopela
(Παρασκευή, Σεπ 22. 2017 06:02 ΜΜ)
καλησπερα επειδη μπαινω πρωτη φορα πως μπορω να κατεβασω μια ταινια?εχω λογαριασμο εασυβυτεζ hdh
Answer: θα φτιαξω εναν οδηγο για να δεις πως κατεβαζουν. περνει χρονο αυτο μεχρι τοτε, κανεις login στο λογαργιασμο σου στο easybytez αντιγραφεις ενα ενα τα λινκς και τα κατεβαζεις.
Gladiatori
(Παρασκευή, Σεπ 22. 2017 01:07 ΠΜ)
Ok γραψτε λαθος !!!
Gladiatori
(Παρασκευή, Σεπ 22. 2017 01:05 ΠΜ)
H mousiki Telos dhladh ???
Mr.Planet
(Κυριακή, Σεπ 17. 2017 09:29 ΠΜ)
Αυτο προτεινω να κανουν ολοι.
Ετσι θα ξερουν ολοι ποιεσ ταινιες ειναι καλες και ποιες οχι.
Mr.Planet
(Κυριακή, Σεπ 17. 2017 09:28 ΠΜ)
alekos123
Aντι να γραφεις ακυρα μηνυματα θα ηταν προτιμοτερο να γραψεις την αποψη σου για αυτα που εχεις κατεβασει, αν σου αρεσε αυτο που ειδες.

1 · 2