Kατηγορίες

Traffic at a Glance

Pageviews 88.350

Days in Range 30

Average Daily Pageviews 2.945

From Search Results 7.011

Unique IPs 7.238

Last 30 minutes 66

Today 2.473

Yesterday 3.931

SALTY / GUN SHY (2017) HDRip XviD AC3-EVO {ΕΝΣΩΜ.ΥΠΟΤ}

 

 

ΣΚΗΝΟΘΕΣΙΑ : Simon West
ΣΕΝΑΡΙΟ : Toby Davies, Mark Haskell Smith
ΗΘΟΠΟΙΟΙ : Antonio Banderas, Olga Kurylenko, Ben Cura
ΕΙΔΟΣ : Action, Adventure, Comedy
ΠΡΕΜΙΕΡΑ : 2017 (UK)
ΜΕΤΑΦΡΑΣΗ : Άγνωστος
iMDB: http://www.imdb.com/title/tt3910736/

Υπόθεση

Ο Ταρκ Χένρι είναι ένας δοξασμένος στα της ροκ, παντρεμένος με σούπερ-μόντελ, αλλά και πλούσιος πέρα από τα πλέον άγρια όνειρα του. Κατά τη διάρκεια διακοπών, η σύζυγος του απάγεται μυστηριωδώς από μια ομάδα περίεργων πειρατών δίχως καράβι. Με ελάχιστη βοήθεια από τις τοπικές αρχές, ο Ταρκ αναγκάζεται να ξεκινήσει μόνος του τη μεγάλη αποστολή της διάσωσης της γυναίκας του. Με εμπειρίες που ταιριάζουν περισσότερο στο να παίζει το μπάσο και να συμμετέχει σε ατίθασα πάρτι, βρίσκεται εξαναγκασμένος να περνάει μέσα από θανατηφόρες ζούγκλες και να τα βάζει με αδίστακτους παρανόμους.

Spoiler:

Format : AVI
Format/Info : Audio Video Interleave
File size : 1.39 GiB
Duration : 1 h 31 min
Overall bit rate : 2 163 kb/s
Writing application : VirtualDubMod 1.5.10.2 (build 2542/release)
Writing library : VirtualDubMod build 2542/release

Video
ID : 0
Format : MPEG-4 Visual
Format profile : Advanced [email protected]
Format settings, BVOP : 1
Format settings, QPel : No
Format settings, GMC : No warppoints
Format settings, Matrix : Default (H.263)
Muxing mode : Packed bitstream
Codec ID : XVID
Codec ID/Hint : XviD
Duration : 1 h 31 min
Bit rate : 1 772 kb/s
Width : 720 pixels
Height : 304 pixels
Display aspect ratio : 2.35:1
Frame rate : 23.976 (24000/1001) FPS
Color space : YUV
Chroma subsampling : 4:2:0
Bit depth : 8 bits
Scan type : Progressive
Compression mode : Lossy
Bits/(Pixel*Frame) : 0.338
Stream size : 1.14 GiB (82%)
Writing library : XviD 64

Audio
ID : 1
Format : AC-3
Format/Info : Audio Coding 3
Format settings, Endianness : Big
Codec ID : 2000
Duration : 1 h 31 min
Bit rate mode : Constant
Bit rate : 384 kb/s
Channel(s) : 6 channels
Channel positions : Front: L C R, Side: L R, LFE
Sampling rate : 48.0 kHz
Frame rate : 31.250 FPS (1536 spf)
Bit depth : 16 bits
Compression mode : Lossy
Stream size : 252 MiB (18%)
Alignment : Split accross interleaves
Interleave, duration : 64 ms (1.53 video frames)
Interleave, preload duratio : 500 ms
Service kind : Complete Main


ΑΝ ΣΑΣ ΑΡΕΣΕΙ Η ΔΟΥΛΕΙΑ ΜΟΥ ΚΑΙ ΘΕΛΕΤΕ ΝΑ ΜΕ ΣΤΗΡΙΞΕΤΕ,
ΚΑΝΤΕ ΕΝΑ ΛΟΓΑΡΙΑΣΜΟ ΓΙΑ EASYBYTEZ & UPLOADED
ΚΑΙ ΚΑΤΕΒΑΣΤΕ ΣΑΝ PREMIUM ΑΠΟ 20 ΔΙΑΦΟΡΕΤΙΚΟΥΣ HOST.

EasyBytez Premium Accounts

Για Uploaded απο Εδώ. http://ul.to/ref/3276399


Links Easybytez & Uploaded

Spoiler:

https://paste2.org/B3MYj45Y

https://pastebin.com/5DUxGKir

Αγαπητοί φίλοι πολλές φορές ίσως σε κάποια λίνκ σας βγάζει «Server error»
η προβληματικός πάροχος η σφάλμα plugin έχει λήξει.
Αυτό δεν σημαίνει απαραίτητα ότι τα λίνκ είναι νεκρά. Δοκιμάστε το εξής.
Πάρ΄τε τα λίνκ ή το μονό λίνκ και κατεβάστε το με Browser….Δεξί κλίκ στο λίνκ και άνοιγμα σε νέο παράθυρο…
Θα σας ανοίξει μία καρτελίτσα και εσείς θα πατήσετε αποθήκευση, όχι άνοιγμα…
Αυτόματά το λίνκ θα κατέβει και θα αποθηκευτεί στο φάκελο που εσείς έχετε επιλέξει.

One Response to SALTY / GUN SHY (2017) HDRip XviD AC3-EVO {ΕΝΣΩΜ.ΥΠΟΤ}

Αφήστε μια απάντηση

Chat - Μόνο Εγγεγραμμένοι Χρήστες
You must be signed in to post a comment
glukiakopela
(Παρασκευή, Σεπ 22. 2017 06:02 ΜΜ)
καλησπερα επειδη μπαινω πρωτη φορα πως μπορω να κατεβασω μια ταινια?εχω λογαριασμο εασυβυτεζ hdh
Answer: θα φτιαξω εναν οδηγο για να δεις πως κατεβαζουν. περνει χρονο αυτο μεχρι τοτε, κανεις login στο λογαργιασμο σου στο easybytez αντιγραφεις ενα ενα τα λινκς και τα κατεβαζεις.
Gladiatori
(Παρασκευή, Σεπ 22. 2017 01:07 ΠΜ)
Ok γραψτε λαθος !!!
Gladiatori
(Παρασκευή, Σεπ 22. 2017 01:05 ΠΜ)
H mousiki Telos dhladh ???
Mr.Planet
(Κυριακή, Σεπ 17. 2017 09:29 ΠΜ)
Αυτο προτεινω να κανουν ολοι.
Ετσι θα ξερουν ολοι ποιεσ ταινιες ειναι καλες και ποιες οχι.
Mr.Planet
(Κυριακή, Σεπ 17. 2017 09:28 ΠΜ)
alekos123
Aντι να γραφεις ακυρα μηνυματα θα ηταν προτιμοτερο να γραψεις την αποψη σου για αυτα που εχεις κατεβασει, αν σου αρεσε αυτο που ειδες.

1 · 2