Kατηγορίες

Traffic at a Glance

Pageviews 109.730

Days in Range 30

Average Daily Pageviews 3.658

From Search Results 10.135

Unique IPs 9.001

Last 30 minutes 126

Today 2.405

Yesterday 3.799

THE AMAZING SPIDERMAN (2012) DVDRip XviD-NYDIC {ΕΝΣΩΜ.ΥΠΟΤ}

 

ΣΚΗΝΟΘΕΣΙΑ : Marc Webb
ΣΕΝΑΡΙΟ : James Vanderbilt (screenplay), Alvin Sargent
ΗΘΟΠΟΙΟΙ : Andrew Garfield, Emma Stone and Rhys Ifans
ΕΙΔΟΣ : Action | Adventure | Fantasy
ΠΡΕΜΙΕΡΑ : 12 July 2012 (Greece)
XΡΟΝΙΣΜΟΣ-ΜΕΤΑΦΡΑΣΗ ΕΞ ΑΚΟΗΣ : Vicky
iMDB: http://www.imdb.com/title/tt0948470/

Υπόθεση

Ως έφηβος που είναι, ο Peter Parker (Andrew Garfield) πασχίζει να συμβιβαστεί με την αληθινή του φύση. Επιπλέον, αναζητά τον δρόμο που θα τον φέρει κοντά στη συμμαθήτρια που έχει ερωτευτεί, τη Gwen (Emma Stone). Καθώς όμως ανακαλύπτει ένα μυστηριώδη χαρτοφύλακα που ανήκε στον πατέρα του (Martin Sheen), ξεκινά μία αναζήτηση του λόγου της εξαφάνισης των γονιών του πριν από πολλά χρόνια. Σύντομα, οδηγείται στο εργαστήριο του δρα Curt Connors (Rhys Ifans), ενός πρώην συνεργάτη του πατέρα του. Καθώς ο Peter έχει στο μεταξύ αποκτήσει υπερδυνάμεις, κινείται σταθερά σε πορεία σύγκρουσης με το alter ego του Connors, τον Lizard, ενώ οι σκληρές αποφάσεις που καλείται να πάρει, είναι εκείνες που θα τον αναδείξουν σε πραγματικό ήρωα.

Spoiler:

Complete name : C:xniar.pisti.avi
Format : AVI
Format/Info : Audio Video Interleave
File size : 805 MiB
Duration : 2h 10mn
Overall bit rate : 861 Kbps
Writing application : VirtualDubMod 1.5.10.2 (build 2542/release)
Writing library : VirtualDubMod build 2542/release

Video
ID : 0
Format : MPEG-4 Visual
Format profile : Advanced [email protected]
Format settings, BVOP : 1
Format settings, QPel : No
Format settings, GMC : No warppoints
Format settings, Matrix : Default (H.263)
Muxing mode : Packed bitstream
Codec ID : XVID
Codec ID/Hint : XviD
Duration : 2h 10mn
Bit rate : 723 Kbps
Width : 624 pixels
Height : 352 pixels
Display aspect ratio : 16:9
Frame rate : 25.000 fps
Color space : YUV
Chroma subsampling : 4:2:0
Bit depth : 8 bits
Scan type : Progressive
Compression mode : Lossy
Bits/(Pixel*Frame) : 0.132
Stream size : 676 MiB (84%)
Writing library : XviD 64

Audio
ID : 1
Format : MPEG Audio
Format version : Version 1
Format profile : Layer 3
Mode : Joint stereo
Mode extension : MS Stereo
Codec ID : 55
Codec ID/Hint : MP3
Duration : 2h 10mn
Bit rate mode : Constant
Bit rate : 128 Kbps
Channel(s) : 2 channels
Sampling rate : 48.0 KHz
Compression mode : Lossy
Stream size : 120 MiB (15%)
Alignment : Split accross interleaves
Interleave, duration : 40 ms (1.00 video frame)
Interleave, preload duration : 500 ms
Writing library : LAME3.98


ΑΝ ΣΑΣ ΑΡΕΣΕΙ Η ΔΟΥΛΕΙΑ ΜΟΥ ΚΑΙ ΘΕΛΕΤΕ ΝΑ ΜΕ ΣΤΗΡΙΞΕΤΕ,
ΚΑΝΤΕ ΕΝΑ ΛΟΓΑΡΙΑΣΜΟ ΓΙΑ EASYBYTEZ & UPLOADED
ΚΑΙ ΚΑΤΕΒΑΣΤΕ ΣΑΝ PREMIUM ΑΠΟ 20 ΔΙΑΦΟΡΕΤΙΚΟΥΣ HOST.

EasyBytez Premium Accounts

Για Uploaded απο Εδώ. http://ul.to/ref/3276399


Links Easybytez & Uploaded

Spoiler:

https://paste2.org/kkbD7kCE

https://pastebin.com/J0VbBFXa

Αγαπητοί φίλοι πολλές φορές ίσως σε κάποια λίνκ σας βγάζει «Server error»
η προβληματικός πάροχος η σφάλμα plugin έχει λήξει.
Αυτό δεν σημαίνει απαραίτητα ότι τα λίνκ είναι νεκρά. Δοκιμάστε το εξής.
Πάρ΄τε τα λίνκ ή το μονό λίνκ και κατεβάστε το με Browser….Δεξί κλίκ στο λίνκ και άνοιγμα σε νέο παράθυρο…
Θα σας ανοίξει μία καρτελίτσα και εσείς θα πατήσετε αποθήκευση, όχι άνοιγμα…
Αυτόματά το λίνκ θα κατέβει και θα αποθηκευτεί στο φάκελο που εσείς έχετε επιλέξει.

Αφήστε μια απάντηση

Chat - Μόνο Εγγεγραμμένοι Χρήστες
You must be signed in to post a comment
Mr.Planet
(Παρασκευή, Νοέ 17. 2017 11:24 ΠΜ)
θερμη παρακληση:
οταν βλεπετε νεκρα η προβληματικα λινκς να το γραφεται στο chat για να αντικαταστησω αμεσα…
σας ευχαριστω!!
Mr.Planet
(Παρασκευή, Νοέ 17. 2017 11:22 ΠΜ)
Kαλημερα στην παρεα που ολο πιο πολυ μεγαλώνει.
Mr.Planet
(Σάββατο, Νοέ 11. 2017 07:28 ΜΜ)
To Chat προσφερεται για βοηθεια οχι για να γραφεται ευχαριστω…
george300
(Σάββατο, Νοέ 11. 2017 06:57 ΜΜ)
ευχαριστώ πολύ
billyalex
(Τρίτη, Νοέ 7. 2017 09:47 ΜΜ)
thanx

1 · 2