Kατηγορίες

Traffic at a Glance

Pageviews 106.315

Days in Range 30

Average Daily Pageviews 3.544

From Search Results 9.718

Unique IPs 8.462

Last 30 minutes 98

Today 2.271

Yesterday 2.895

THE AMAZING SPIDERMAN (2012) DVDRip XviD-NYDIC {ΕΝΣΩΜ.ΥΠΟΤ}

 

ΣΚΗΝΟΘΕΣΙΑ : Marc Webb
ΣΕΝΑΡΙΟ : James Vanderbilt (screenplay), Alvin Sargent
ΗΘΟΠΟΙΟΙ : Andrew Garfield, Emma Stone and Rhys Ifans
ΕΙΔΟΣ : Action | Adventure | Fantasy
ΠΡΕΜΙΕΡΑ : 12 July 2012 (Greece)
XΡΟΝΙΣΜΟΣ-ΜΕΤΑΦΡΑΣΗ ΕΞ ΑΚΟΗΣ : Vicky
iMDB: http://www.imdb.com/title/tt0948470/

Υπόθεση

Ως έφηβος που είναι, ο Peter Parker (Andrew Garfield) πασχίζει να συμβιβαστεί με την αληθινή του φύση. Επιπλέον, αναζητά τον δρόμο που θα τον φέρει κοντά στη συμμαθήτρια που έχει ερωτευτεί, τη Gwen (Emma Stone). Καθώς όμως ανακαλύπτει ένα μυστηριώδη χαρτοφύλακα που ανήκε στον πατέρα του (Martin Sheen), ξεκινά μία αναζήτηση του λόγου της εξαφάνισης των γονιών του πριν από πολλά χρόνια. Σύντομα, οδηγείται στο εργαστήριο του δρα Curt Connors (Rhys Ifans), ενός πρώην συνεργάτη του πατέρα του. Καθώς ο Peter έχει στο μεταξύ αποκτήσει υπερδυνάμεις, κινείται σταθερά σε πορεία σύγκρουσης με το alter ego του Connors, τον Lizard, ενώ οι σκληρές αποφάσεις που καλείται να πάρει, είναι εκείνες που θα τον αναδείξουν σε πραγματικό ήρωα.

Spoiler:

Complete name : C:xniar.pisti.avi
Format : AVI
Format/Info : Audio Video Interleave
File size : 805 MiB
Duration : 2h 10mn
Overall bit rate : 861 Kbps
Writing application : VirtualDubMod 1.5.10.2 (build 2542/release)
Writing library : VirtualDubMod build 2542/release

Video
ID : 0
Format : MPEG-4 Visual
Format profile : Advanced [email protected]
Format settings, BVOP : 1
Format settings, QPel : No
Format settings, GMC : No warppoints
Format settings, Matrix : Default (H.263)
Muxing mode : Packed bitstream
Codec ID : XVID
Codec ID/Hint : XviD
Duration : 2h 10mn
Bit rate : 723 Kbps
Width : 624 pixels
Height : 352 pixels
Display aspect ratio : 16:9
Frame rate : 25.000 fps
Color space : YUV
Chroma subsampling : 4:2:0
Bit depth : 8 bits
Scan type : Progressive
Compression mode : Lossy
Bits/(Pixel*Frame) : 0.132
Stream size : 676 MiB (84%)
Writing library : XviD 64

Audio
ID : 1
Format : MPEG Audio
Format version : Version 1
Format profile : Layer 3
Mode : Joint stereo
Mode extension : MS Stereo
Codec ID : 55
Codec ID/Hint : MP3
Duration : 2h 10mn
Bit rate mode : Constant
Bit rate : 128 Kbps
Channel(s) : 2 channels
Sampling rate : 48.0 KHz
Compression mode : Lossy
Stream size : 120 MiB (15%)
Alignment : Split accross interleaves
Interleave, duration : 40 ms (1.00 video frame)
Interleave, preload duration : 500 ms
Writing library : LAME3.98


ΑΝ ΣΑΣ ΑΡΕΣΕΙ Η ΔΟΥΛΕΙΑ ΜΟΥ ΚΑΙ ΘΕΛΕΤΕ ΝΑ ΜΕ ΣΤΗΡΙΞΕΤΕ,
ΚΑΝΤΕ ΕΝΑ ΛΟΓΑΡΙΑΣΜΟ ΓΙΑ EASYBYTEZ & UPLOADED
ΚΑΙ ΚΑΤΕΒΑΣΤΕ ΣΑΝ PREMIUM ΑΠΟ 20 ΔΙΑΦΟΡΕΤΙΚΟΥΣ HOST.

EasyBytez Premium Accounts

Για Uploaded απο Εδώ. http://ul.to/ref/3276399


Links Easybytez & Uploaded

Spoiler:

https://paste2.org/kkbD7kCE

https://pastebin.com/J0VbBFXa

Αγαπητοί φίλοι πολλές φορές ίσως σε κάποια λίνκ σας βγάζει «Server error»
η προβληματικός πάροχος η σφάλμα plugin έχει λήξει.
Αυτό δεν σημαίνει απαραίτητα ότι τα λίνκ είναι νεκρά. Δοκιμάστε το εξής.
Πάρ΄τε τα λίνκ ή το μονό λίνκ και κατεβάστε το με Browser….Δεξί κλίκ στο λίνκ και άνοιγμα σε νέο παράθυρο…
Θα σας ανοίξει μία καρτελίτσα και εσείς θα πατήσετε αποθήκευση, όχι άνοιγμα…
Αυτόματά το λίνκ θα κατέβει και θα αποθηκευτεί στο φάκελο που εσείς έχετε επιλέξει.

Αφήστε μια απάντηση

Chat - Μόνο Εγγεγραμμένοι Χρήστες
You must be signed in to post a comment
stamilia
(Σάββατο, Φεβ 10. 2018 03:08 ΜΜ)
καλησπερα!!!!!!!!! μηπως υπαρχει ο ψαλιδοχερης με τον τζονη ντεπ
Edward Scissorhands 1990??
παρακαλώ πολυ!!!!
Mr.Planet: Aνεβηκε σε Micro-HD μικρο μεγεθος υψηλη αναληση.
amarsof
(Παρασκευή, Φεβ 9. 2018 10:38 ΜΜ)
kalispera,exoume neotera epeisodia apo Cardinal??
thanks!!!
Mr.Planet: οχι δεν υπαρχει νεo επεισοδιο.
Mr.Planet
(Κυριακή, Ιαν 28. 2018 11:01 ΜΜ)
Kαλησπερα Gladiatori
Gladiatori
(Κυριακή, Ιαν 28. 2018 10:22 ΜΜ)
καλησπερα
geodelta
(Κυριακή, Ιαν 28. 2018 11:53 ΠΜ)
OK ευχαριστώ

1 · 2