Kατηγορίες

Traffic at a Glance

Pageviews 109.208

Days in Range 30

Average Daily Pageviews 3.640

From Search Results 10.110

Unique IPs 8.958

Last 30 minutes 73

Today 1.883

Yesterday 3.799

CINDERELLA (2015) BRRip x264 AC3 – METAΓΛΩΤΙΣΜΕΝΟ

 

Είδος: Drama, Family, Fantasy
Πρεμιέρα: 12 March 2015 (Greece)
Σκηνοθεσία: Kenneth Branagh
Σενάριο: Chris Weitz
Ηθοποιοί: Lily James, Cate Blanchett, Richard Madden
Μετάγλώτιση: Στα Ελληνικά με τις φωνές των.Γιάννης Στεφόπουλος, Τάσος Κωστής, Δημήτρης Δημόπουλος, Φοίβος Ριμενάς,Μαρία Πλακίδη, Ινώ Στεφάνη, Τζίνη Παπαδοπούλου, Άλκης Ζερβός, Αγγελική Δημητρακοπούλου, Δημήτρης Πακσόγλου,Χριστέλα Γκιζέλη, Ινώ Μενενάκου.
iMDB: http://www.imdb.com/title/tt1661199/

Υπόθεση

Όταν η μητέρα της βρίσκει τραγικό θάνατο, ο έμπορος πατέρας της Έλα βρίσκει νέα σύζυγο. Για να βοηθήσει τον αγαπημένο της πατέρα, η Έλα καλωσορίζει στο σπίτι τους τη μητριά της, λαίδη Τρεμέν, και τις κόρες της, Αναστασία και Ντριζέλα. Αλλά όταν κι ο πατέρας της απρόοπτα κι ανεξήγητα πεθαίνει, η Έλα βρίσκεται στο έλεος μιας ζηλόφθονης και σκληρής οικογένειας. Γίνεται η υπηρέτρια τους και τη μετονομάζουν Σιντερέλα (Σταχτοπούτα). Αλλά η Σιντερέλα δεν έχει σκοπό να τα παρατήσει, θυμούμενη τα τελευταία λόγια της μητέρας της που τη συμβούλευε να έχει θάρρος και να είναι ευγενική.

Spoiler:

Format : Matroska
Format version : Version 2
File size : 1.69 GiB
Duration : 1h 45mn
Overall bit rate : 2 291 Kbps
Encoded date : UTC 2015-08-20 09:58:53
Writing application : mkvmerge v5.8.0 (‘No Sleep / Pillow’) built on Sep 2 2012 15:37:04
Writing library : libebml v1.2.3 + libmatroska v1.3.0

Video
ID : 1
Format : AVC
Format/Info : Advanced Video Codec
Format profile : [email protected]
Format settings, CABAC : Yes
Format settings, ReFrames : 5 frames
Codec ID : V_MPEG4/ISO/AVC
Duration : 1h 45mn
Bit rate : 1 649 Kbps
Width : 720 pixels
Height : 304 pixels
Display aspect ratio : 2.35:1
Frame rate mode : Constant
Frame rate : 23.976 fps
Color space : YUV
Chroma subsampling : 4:2:0
Bit depth : 8 bits
Scan type : Progressive
Bits/(Pixel*Frame) : 0.314
Stream size : 1.18 GiB (70%)
Writing library : x264 core 146 r2538 121396c
Encoding settings : cabac=1 / ref=5 / deblock=1:0:0 / analyse=0x3:033 / me=umh / subme=7 / psy=1 / psy_rd=1.00:0.00 / mixed_ref=1 / me_range=30 / chroma_me=1 / trellis=2 / 8x8dct=1 / cqm=0 / deadzone=21,11 / fast_pskip=1 / chroma_qp_offset=-2 / threads=6 / lookahead_threads=1 / sliced_threads=0 / nr=0 / decimate=1 / interlaced=0 / bluray_compat=0 / constrained_intra=0 / bframes=3 / b_pyramid=2 / b_adapt=2 / b_bias=0 / direct=1 / weightb=1 / open_gop=0 / weightp=2 / keyint=240 / keyint_min=23 / scenecut=40 / intra_refresh=0 / rc_lookahead=40 / rc=2pass / mbtree=1 / bitrate=1649 / ratetol=1.0 / qcomp=0.60 / qpmin=0 / qpmax=69 / qpstep=4 / cplxblur=20.0 / qblur=0.5 / ip_ratio=1.40 / aq=1:1.00
Default : Yes
Forced : No

Audio
ID : 2
Format : AC-3
Format/Info : Audio Coding 3
Mode extension : CM (complete main)
Format settings, Endianness : Big
Codec ID : A_AC3
Duration : 1h 45mn
Bit rate mode : Constant
Bit rate : 640 Kbps
Channel(s) : 6 channels
Channel positions : Front: L C R, Side: L R, LFE
Sampling rate : 48.0 KHz
Bit depth : 16 bits
Compression mode : Lossy
Stream size : 482 MiB (28%)
Default : Yes
Forced : No


ΑΝ ΣΑΣ ΑΡΕΣΕΙ Η ΔΟΥΛΕΙΑ ΜΟΥ ΚΑΙ ΘΕΛΕΤΕ ΝΑ ΜΕ ΣΤΗΡΙΞΕΤΕ,
ΚΑΝΤΕ ΕΝΑ ΛΟΓΑΡΙΑΣΜΟ ΓΙΑ EASYBYTEZ & UPLOADED
ΚΑΙ ΚΑΤΕΒΑΣΤΕ ΣΑΝ PREMIUM ΑΠΟ 20 ΔΙΑΦΟΡΕΤΙΚΟΥΣ HOST.

EasyBytez Premium Accounts

Για Uploaded απο Εδώ. http://ul.to/ref/3276399


Links Easybytez & Uploaded

Spoiler:

https://paste2.org/Wz6v0hLh

https://pastebin.com/s4SwpQzH

Αγαπητοί φίλοι πολλές φορές ίσως σε κάποια λίνκ σας βγάζει «Server error»
η προβληματικός πάροχος η σφάλμα plugin έχει λήξει.
Αυτό δεν σημαίνει απαραίτητα ότι τα λίνκ είναι νεκρά. Δοκιμάστε το εξής.
Πάρ΄τε τα λίνκ ή το μονό λίνκ και κατεβάστε το με Browser….Δεξί κλίκ στο λίνκ και άνοιγμα σε νέο παράθυρο…
Θα σας ανοίξει μία καρτελίτσα και εσείς θα πατήσετε αποθήκευση, όχι άνοιγμα…
Αυτόματά το λίνκ θα κατέβει και θα αποθηκευτεί στο φάκελο που εσείς έχετε επιλέξει.

Αφήστε μια απάντηση

Chat - Μόνο Εγγεγραμμένοι Χρήστες
You must be signed in to post a comment
Mr.Planet
(Παρασκευή, Νοέ 17. 2017 11:24 ΠΜ)
θερμη παρακληση:
οταν βλεπετε νεκρα η προβληματικα λινκς να το γραφεται στο chat για να αντικαταστησω αμεσα…
σας ευχαριστω!!
Mr.Planet
(Παρασκευή, Νοέ 17. 2017 11:22 ΠΜ)
Kαλημερα στην παρεα που ολο πιο πολυ μεγαλώνει.
Mr.Planet
(Σάββατο, Νοέ 11. 2017 07:28 ΜΜ)
To Chat προσφερεται για βοηθεια οχι για να γραφεται ευχαριστω…
george300
(Σάββατο, Νοέ 11. 2017 06:57 ΜΜ)
ευχαριστώ πολύ
billyalex
(Τρίτη, Νοέ 7. 2017 09:47 ΜΜ)
thanx

1 · 2