Kατηγορίες

Traffic at a Glance

Pageviews 104.536

Days in Range 30

Average Daily Pageviews 3.485

From Search Results 9.549

Unique IPs 8.331

Last 30 minutes 50

Today 492

Yesterday 2.895

LOVE ROSIE (2014) 480p BRRiP XviD AC3-FAS {ΕΝΣΩΜ.ΥΠΟΤ}

 

Είδος: Comedy | Romance
Πρεμιέρα: 5 February 2015 (Greece)
Σκηνοθεσία: Christian Ditter
Σενάριο: Juliette Towhidi (screenplay), Cecelia Ahern
Ηθοποιοί: Lily Collins, Sam Claflin, Christian Cooke
Απόδοση Διαλόγων: Calamity Jane(Big Thx)
iMDB: http://www.imdb.com/title/tt1638002/

Υπόθεση: Η Ρόζι και ο Άλεξ είναι καλύτεροι φίλοι από 5 χρονών ή μήπως όχι; Μεγαλώνουν μαζί, φλερτάρουν και ενθουσιάζονται, μέχρι τη στιγμή που αναγκάζονται να χωριστούν, μιας και ο Άλεξ θα μετακομίσει, για σπουδές, από το Δουβλίνο στην Αμερική. Μπορεί η φιλία τους να αντέξει μέσα στα χρόνια και από τόσο μακριά; Θα τολμήσουν να ρισκάρουν τα πάντα για την αληθινή αγάπη;

Spoiler:

Complete name : C:OEE-48B0C__YYBI333–EE.0FVVV3.avi
Format : AVI
Format/Info : Audio Video Interleave
File size : 1.62 GiB
Duration : 1h 42mn
Overall bit rate : 2 254 Kbps
Writing application : VirtualDubMod 1.5.10.2 (build 2542/release)
Writing library : VirtualDubMod build 2542/release

Video
ID : 0
Format : MPEG-4 Visual
Format profile : Advanced [email protected]
Format settings, BVOP : 1
Format settings, QPel : No
Format settings, GMC : No warppoints
Format settings, Matrix : Default (H.263)
Muxing mode : Packed bitstream
Codec ID : XVID
Codec ID/Hint : XviD
Duration : 1h 42mn
Bit rate : 1 799 Kbps
Width : 848 pixels
Height : 368 pixels
Display aspect ratio : 2.35:1
Frame rate : 23.976 fps
Color space : YUV
Chroma subsampling : 4:2:0
Bit depth : 8 bits
Scan type : Progressive
Compression mode : Lossy
Bits/(Pixel*Frame) : 0.240
Stream size : 1.29 GiB (80%)
Writing library : XviD 64

Audio
ID : 1
Format : AC-3
Format/Info : Audio Coding 3
Mode extension : CM (complete main)
Format settings, Endianness : Big
Codec ID : 2000
Duration : 1h 42mn
Bit rate mode : Constant
Bit rate : 448 Kbps
Channel count : 6 channels
Channel positions : Front: L C R, Side: L R, LFE
Sampling rate : 48.0 KHz
Bit depth : 16 bits
Compression mode : Lossy
Stream size : 330 MiB (20%)
Alignment : Split accross interleaves
Interleave, duration : 64 ms (1.53 video frames)
Interleave, preload duration : 500 ms


ΑΝ ΣΑΣ ΑΡΕΣΕΙ Η ΔΟΥΛΕΙΑ ΜΟΥ ΚΑΙ ΘΕΛΕΤΕ ΝΑ ΜΕ ΣΤΗΡΙΞΕΤΕ,
ΚΑΝΤΕ ΕΝΑ ΛΟΓΑΡΙΑΣΜΟ ΓΙΑ EASYBYTEZ & UPLOADED
ΚΑΙ ΚΑΤΕΒΑΣΤΕ ΣΑΝ PREMIUM ΑΠΟ 20 ΔΙΑΦΟΡΕΤΙΚΟΥΣ HOST.

http://www.easybytez.com/free404761.html

EasyBytez Premium Accounts

Για Uploaded απο Εδώ. http://ul.to/ref/3276399


Links Easybytez & Uploaded

Spoiler:

https://paste2.org/c7xgWsNb

Αγαπητοί φίλοι πολλές φορές ίσως σε κάποια λίνκ σας βγάζει «Server error»
η προβληματικός πάροχος η σφάλμα plugin έχει λήξει.
Αυτό δεν σημαίνει απαραίτητα ότι τα λίνκ είναι νεκρά. Δοκιμάστε το εξής.
Πάρ΄τε τα λίνκ ή το μονό λίνκ και κατεβάστε το με Browser….Δεξί κλίκ στο λίνκ και άνοιγμα σε νέο παράθυρο…
Θα σας ανοίξει μία καρτελίτσα και εσείς θα πατήσετε αποθήκευση, όχι άνοιγμα…
Αυτόματά το λίνκ θα κατέβει και θα αποθηκευτεί στο φάκελο που εσείς έχετε επιλέξει.

Αφήστε μια απάντηση

Chat - Μόνο Εγγεγραμμένοι Χρήστες
You must be signed in to post a comment
stamilia
(Σάββατο, Φεβ 10. 2018 03:08 ΜΜ)
καλησπερα!!!!!!!!! μηπως υπαρχει ο ψαλιδοχερης με τον τζονη ντεπ
Edward Scissorhands 1990??
παρακαλώ πολυ!!!!
Mr.Planet: Aνεβηκε σε Micro-HD μικρο μεγεθος υψηλη αναληση.
amarsof
(Παρασκευή, Φεβ 9. 2018 10:38 ΜΜ)
kalispera,exoume neotera epeisodia apo Cardinal??
thanks!!!
Mr.Planet: οχι δεν υπαρχει νεo επεισοδιο.
Mr.Planet
(Κυριακή, Ιαν 28. 2018 11:01 ΜΜ)
Kαλησπερα Gladiatori
Gladiatori
(Κυριακή, Ιαν 28. 2018 10:22 ΜΜ)
καλησπερα
geodelta
(Κυριακή, Ιαν 28. 2018 11:53 ΠΜ)
OK ευχαριστώ

1 · 2