Kατηγορίες

Traffic at a Glance

Pageviews 86.228

Days in Range 30

Average Daily Pageviews 2.874

From Search Results 6.869

Unique IPs 7.095

Last 30 minutes 3

Today 351

Yesterday 3.931

SHUT IN / INTRUDERS (2015) BRRip XviD AC3-RARBG {ENΣΩΜ.ΥΠΟΤ}

 

Είδος: Drama, Horror, Thriller
Πρεμιέρα: 15 January 2016 (USA)
Σκηνοθεσία: Adam Schindler
Σενάριο: T.J. Cimfel, David White
Ηθοποιοί: Rory Culkin, Leticia Jimenez, Jack Kesy
Απόδοση Διαλόγων: Mitsarinho69 (Big Thx)
iMDB: http://www.imdb.com/title/tt4009278/

Υπόθεση

Η Άννα είναι μια γυναίκα που υποφέρει από αγοραφοβία. Όταν χάνει από καρκίνο τον αδερφό της, τον μοναδικό της προστάτη, δείχνει εξαιρετικά ευάλωτη. Μια τριάδα εισβολέων προσπαθεί να επωφεληθεί από αυτό και μπαίνει στο σπίτι της με σκοπό να την ληστέψει. Αλλά αυτό που οι εισβολείς δεν γνωρίζουν, είναι ότι η αγοραφοβία δεν είναι η μοναδική ψύχωση της Άννα…

Spoiler:

Format : AVI
Format/Info : Audio Video Interleave
File size : 930 MiB
Duration : 1h 26mn
Overall bit rate : 1 505 Kbps
Writing application : VirtualDubMod 1.5.10.2 (build 2542/release)
Writing library : VirtualDubMod build 2542/release

Video
ID : 0
Format : MPEG-4 Visual
Format profile : Advanced [email protected]
Format settings, BVOP : 1
Format settings, QPel : No
Format settings, GMC : No warppoints
Format settings, Matrix : Default (H.263)
Muxing mode : Packed bitstream
Codec ID : XVID
Codec ID/Hint : XviD
Duration : 1h 26mn
Bit rate : 1 049 Kbps
Width : 720 pixels
Height : 302 pixels
Display aspect ratio : 2.40:1
Frame rate : 25.000 fps
Color space : YUV
Chroma subsampling : 4:2:0
Bit depth : 8 bits
Scan type : Progressive
Compression mode : Lossy
Bits/(Pixel*Frame) : 0.193
Stream size : 648 MiB (70%)
Writing library : XviD 64

Audio
ID : 1
Format : AC-3
Format/Info : Audio Coding 3
Mode extension : CM (complete main)
Format settings, Endianness : Big
Codec ID : 2000
Duration : 1h 26mn
Bit rate mode : Constant
Bit rate : 448 Kbps
Channel(s) : 6 channels
Channel positions : Front: L C R, Side: L R, LFE
Sampling rate : 48.0 KHz
Bit depth : 16 bits
Compression mode : Lossy
Stream size : 277 MiB (30%)
Alignment : Split accross interleaves
Interleave, duration : 64 ms (1.60 video frames)
Interleave, preload duration : 500 ms


ΑΝ ΣΑΣ ΑΡΕΣΕΙ Η ΔΟΥΛΕΙΑ ΜΟΥ ΚΑΙ ΘΕΛΕΤΕ ΝΑ ΜΕ ΣΤΗΡΙΞΕΤΕ,
ΚΑΝΤΕ ΕΝΑ ΛΟΓΑΡΙΑΣΜΟ ΓΙΑ EASYBYTEZ & UPLOADED
ΚΑΙ ΚΑΤΕΒΑΣΤΕ ΣΑΝ PREMIUM ΑΠΟ 20 ΔΙΑΦΟΡΕΤΙΚΟΥΣ HOST.

EasyBytez Premium Accounts

Για Uploaded απο Εδώ. http://ul.to/ref/3276399


Links Easybytez & Uploaded

Spoiler:

https://paste2.org/txnLOnUK

Αγαπητοί φίλοι πολλές φορές ίσως σε κάποια λίνκ σας βγάζει «Server error»
η προβληματικός πάροχος η σφάλμα plugin έχει λήξει.
Αυτό δεν σημαίνει απαραίτητα ότι τα λίνκ είναι νεκρά. Δοκιμάστε το εξής.
Πάρ΄τε τα λίνκ ή το μονό λίνκ και κατεβάστε το με Browser….Δεξί κλίκ στο λίνκ και άνοιγμα σε νέο παράθυρο…
Θα σας ανοίξει μία καρτελίτσα και εσείς θα πατήσετε αποθήκευση, όχι άνοιγμα…
Αυτόματά το λίνκ θα κατέβει και θα αποθηκευτεί στο φάκελο που εσείς έχετε επιλέξει.

Αφήστε μια απάντηση

Chat - Μόνο Εγγεγραμμένοι Χρήστες
You must be signed in to post a comment
glukiakopela
(Παρασκευή, Σεπ 22. 2017 06:02 ΜΜ)
καλησπερα επειδη μπαινω πρωτη φορα πως μπορω να κατεβασω μια ταινια?εχω λογαριασμο εασυβυτεζ hdh
Answer: θα φτιαξω εναν οδηγο για να δεις πως κατεβαζουν. περνει χρονο αυτο μεχρι τοτε, κανεις login στο λογαργιασμο σου στο easybytez αντιγραφεις ενα ενα τα λινκς και τα κατεβαζεις.
Gladiatori
(Παρασκευή, Σεπ 22. 2017 01:07 ΠΜ)
Ok γραψτε λαθος !!!
Gladiatori
(Παρασκευή, Σεπ 22. 2017 01:05 ΠΜ)
H mousiki Telos dhladh ???
Mr.Planet
(Κυριακή, Σεπ 17. 2017 09:29 ΠΜ)
Αυτο προτεινω να κανουν ολοι.
Ετσι θα ξερουν ολοι ποιεσ ταινιες ειναι καλες και ποιες οχι.
Mr.Planet
(Κυριακή, Σεπ 17. 2017 09:28 ΠΜ)
alekos123
Aντι να γραφεις ακυρα μηνυματα θα ηταν προτιμοτερο να γραψεις την αποψη σου για αυτα που εχεις κατεβασει, αν σου αρεσε αυτο που ειδες.

1 · 2