Kατηγορίες

Traffic at a Glance

Pageviews 107.791

Days in Range 30

Average Daily Pageviews 3.593

From Search Results 10.028

Unique IPs 8.867

Last 30 minutes 35

Today 466

Yesterday 3.799

SLEIGHT (2016) BRRip XviD AC3-EVO {ΕΝΣΩΜ.ΥΠΟΤ}

https://pastebin.com/UgpU7qrB 

ΣΚΗΝΟΘΕΣΙΑ : J.D. Dillard
ΣΕΝΑΡΙΟ : J.D. Dillard
ΗΘΟΠΟΙΟΙ : Jacob Latimore, Seychelle Gabriel, Dulé Hill
ΕΙΔΟΣ : Action, Drama, Sci-Fi
ΠΡΕΜΙΕΡΑ : 28 April 2017 (USA)
ΜΕΤΑΦΡΑΣΗ : AGNWSTOS
iMDB: http://www.imdb.com/title/tt4573516/

Υπόθεση

Υστερα απο τον θάνατο της μητέρας του, ένας νεαρός ταχυδακτυλουργός του δρόμου στρέφεται στην διακίνηση ναρκωτικών για φροντίσει την μικρή του αδελφή. Υστερα όμως απο ένα πρόβλημα με τον ‘προμηθευτή’ του, η αδελφή του απάγεται και πλέον είναι αναγκασμένος να στηριχθεί στις ‘ικανότητες’ των χεριών του και το ιδιοφυές μυαλό του για να τη σώσει.

Spoiler:

Format : AVI
Format/Info : Audio Video Interleave
File size : 1.28 GiB
Duration : 1 h 29 min
Overall bit rate : 2 056 kb/s
Writing application : VirtualDubMod 1.5.10.2 (build 2542/release)
Writing library : VirtualDubMod build 2542/release

Video
ID : 0
Format : MPEG-4 Visual
Format profile : Advanced [email protected]
Format settings, BVOP : 1
Format settings, QPel : No
Format settings, GMC : No warppoints
Format settings, Matrix : Default (H.263)
Muxing mode : Packed bitstream
Codec ID : XVID
Codec ID/Hint : XviD
Duration : 1 h 29 min
Bit rate : 1 600 kb/s
Width : 720 pixels
Height : 304 pixels
Display aspect ratio : 2.35:1
Frame rate : 23.976 (24000/1001) FPS
Color space : YUV
Chroma subsampling : 4:2:0
Bit depth : 8 bits
Scan type : Progressive
Compression mode : Lossy
Bits/(Pixel*Frame) : 0.305
Stream size : 1 022 MiB (78%)
Writing library : XviD 64

Audio
ID : 1
Format : AC-3
Format/Info : Audio Coding 3
Format settings, Endianness : Big
Codec ID : 2000
Duration : 1 h 29 min
Bit rate mode : Constant
Bit rate : 448 kb/s
Channel(s) : 6 channels
Channel positions : Front: L C R, Side: L R, LFE
Sampling rate : 48.0 kHz
Frame rate : 31.250 FPS (1536 spf)
Bit depth : 16 bits
Compression mode : Lossy
Stream size : 286 MiB (22%)
Alignment : Split accross interleaves
Interleave, duration : 64 ms (1.53 video frames)
Interleave, preload duratio : 500 ms
Service kind : Complete Main


ΑΝ ΣΑΣ ΑΡΕΣΕΙ Η ΔΟΥΛΕΙΑ ΜΟΥ ΚΑΙ ΘΕΛΕΤΕ ΝΑ ΜΕ ΣΤΗΡΙΞΕΤΕ,
ΚΑΝΤΕ ΕΝΑ ΛΟΓΑΡΙΑΣΜΟ ΓΙΑ EASYBYTEZ & UPLOADED
ΚΑΙ ΚΑΤΕΒΑΣΤΕ ΣΑΝ PREMIUM ΑΠΟ 20 ΔΙΑΦΟΡΕΤΙΚΟΥΣ HOST.

EasyBytez Premium Accounts

Για Uploaded απο Εδώ. http://ul.to/ref/3276399


Links Easybytez & Uploaded

Spoiler:

https://paste2.org/X366XppJ

https://pastebin.com/UgpU7qrB

Αγαπητοί φίλοι πολλές φορές ίσως σε κάποια λίνκ σας βγάζει «Server error»
η προβληματικός πάροχος η σφάλμα plugin έχει λήξει.
Αυτό δεν σημαίνει απαραίτητα ότι τα λίνκ είναι νεκρά. Δοκιμάστε το εξής.
Πάρ΄τε τα λίνκ ή το μονό λίνκ και κατεβάστε το με Browser….Δεξί κλίκ στο λίνκ και άνοιγμα σε νέο παράθυρο…
Θα σας ανοίξει μία καρτελίτσα και εσείς θα πατήσετε αποθήκευση, όχι άνοιγμα…
Αυτόματά το λίνκ θα κατέβει και θα αποθηκευτεί στο φάκελο που εσείς έχετε επιλέξει.

Αφήστε μια απάντηση

Chat - Μόνο Εγγεγραμμένοι Χρήστες
You must be signed in to post a comment
Mr.Planet
(Παρασκευή, Νοέ 17. 2017 11:24 ΠΜ)
θερμη παρακληση:
οταν βλεπετε νεκρα η προβληματικα λινκς να το γραφεται στο chat για να αντικαταστησω αμεσα…
σας ευχαριστω!!
Mr.Planet
(Παρασκευή, Νοέ 17. 2017 11:22 ΠΜ)
Kαλημερα στην παρεα που ολο πιο πολυ μεγαλώνει.
Mr.Planet
(Σάββατο, Νοέ 11. 2017 07:28 ΜΜ)
To Chat προσφερεται για βοηθεια οχι για να γραφεται ευχαριστω…
george300
(Σάββατο, Νοέ 11. 2017 06:57 ΜΜ)
ευχαριστώ πολύ
billyalex
(Τρίτη, Νοέ 7. 2017 09:47 ΜΜ)
thanx

1 · 2