Kατηγορίες

Traffic at a Glance

Pageviews 135.964

Days in Range 30

Average Daily Pageviews 4.532

From Search Results 9.069

Unique IPs 8.758

Last 30 minutes 148

Today 1.807

Yesterday 3.816

THE ANT BULLY – ΜΥΡΜΗΓΚΟΙΣΤΟΡΙΕΣ (2006) DVDRip-Xvid-AC3 – ΜΕΤΑΓΛΩΤΙΣΜΕΝΟ

 

 

Σκηνοθέτης: John A. Davis
Σενάριο: John A. Davis, John Nickle (book)
Ηθοποιοί (Φωνές):Nicolas Cage, «Zoc», Paul Giamatti «Stan Beals», Regina King «Kreela», Julia Roberts «Hova», Meryl Streep «η βασίλισσα των μυρμηγκιών», Jake T. Austin «Nicky», Alan Cumming «Fugax» κ.α.
Διάρκεια:1 ώρα 25 λεπτά
IMDb http://www.imdb.com/title/tt0429589/

Υπόθεση:
Ένα ολόκληρο σύμπαν, που κρύβεται καλά πίσω από τις φυλλωσιές και το γρασίδι της αυλής, είναι εκείνο στο οποίο ζουν καθημερινά εκατοντάδες εκατομμύρια μυρμήγκια. Ένας κόσμος που δεν έχει να παρουσιάσει σημαντικές διαφορές θεωρητικά από τον δικό μας, τον ανθρώπινο. Μόνο που σε μια κοινωνία τέτοιων εντόμων, τα πάντα κυλούν μέσα σε χαρακτηριστική τάξη και ομαλότητα, με την μία και μόνη βασίλισσα να βρίσκεται στο διοικητικό επίκεντρο και τους ηλικιωμένους σοφούς να κατανέμουν τις ασχολίες, είτε στους εργάτες που φροντίζουν για την συντήρηση των προμηθειών της αποικίας, είτε στους στρατιώτες που προσφέρουν ασφάλεια. Κύριος εχθρός της ακεραιότητας μιας τέτοιας πολυπληθούς ομάδας, εκτός από τα άλλα δυνατότερα έντομα, είναι ο τεράστιος – στα μάτια τους – άνθρωπος, που λόγω μεγέθους, θέλοντας ή μη, σε κάθε του κίνηση προκαλεί φυσικές καταστροφές στις μυρμηγκοφωλιές. Συναγερμός σημαίνει στην αποικία των μυρμηγκιών σε κάθε εμφάνιση του αντιπαθέστατου μικρούλη Λούκας, που απομονωμένος από τα υπόλοιπα μέλη της οικογένειας του, αλλά και αποξενωμένος από τα άλλα (εξίσου ασυμπαθή) γειτονόπουλα, ξεσπά με όποιον τρόπο μπορεί στην φωλιά των μικροσκοπικών εντόμων. Την λύση στο πρόβλημα καλείται να βρει ο Μυρμηγκομάγος Ζοκ, που ανακαλύπτοντας ένα μαγικό φίλτρο, θα καταφέρει σμικρύνει τον δεκάχρονο εξολοθρευτή, φέρνοντας τον στο ίδιο μέγεθος με τους εξάποδους συντρόφους του. Σκοπός των μυρμηγκιών είναι δώσουν ένα καλό μάθημα συμπεριφοράς στον φοβισμένο πια Λούκας, που δίχως το πλεονέκτημα της θωριάς του, πρέπει να ακολουθήσει τους κανόνες του μικρόκοσμου για να επιζήσει!

Spoiler:

Format : AVI
Format/Info : Audio Video Interleave
File size : 1.30 GiB
Duration : 1 h 25 min
Overall bit rate : 2 187 kb/s
Movie name : THE ANT BULLY.Title1.DVDRip
Writing application : Lavf52.33.0
Original source form/Name : THE ANT BULLY

Video
ID : 0
Format : MPEG-4 Visual
Format profile : Advanced [email protected]
Format settings, BVOP : 2
Format settings, QPel : No
Format settings, GMC : No warppoints
Format settings, Matrix : Default (H.263)
Muxing mode : Packed bitstream
Codec ID : XVID
Codec ID/Hint : XviD
Duration : 1 h 25 min
Bit rate : 1 796 kb/s
Width : 720 pixels
Height : 400 pixels
Display aspect ratio : 16:9
Frame rate : 25.000 FPS
Color space : YUV
Chroma subsampling : 4:2:0
Bit depth : 8 bits
Scan type : Progressive
Compression mode : Lossy
Bits/(Pixel*Frame) : 0.249
Stream size : 1.07 GiB (82%)
Writing library : XviD 1.2.1 (UTC 2008-12-04)

Audio
ID : 1
Format : AC-3
Format/Info : Audio Coding 3
Format settings, Endianness : Big
Codec ID : 2000
Duration : 1 h 25 min
Bit rate mode : Constant
Bit rate : 384 kb/s
Channel(s) : 6 channels
Channel positions : Front: L C R, Side: L R, LFE
Sampling rate : 48.0 kHz
Frame rate : 31.250 FPS (1536 SPF)
Bit depth : 16 bits
Compression mode : Lossy
Stream size : 234 MiB (18%)
Alignment : Aligned on interleaves
Interleave, duration : 32 ms (0.80 video frame)
Interleave, preload duration : 32 ms
Service kind : Complete Main


ΑΝ ΣΑΣ ΑΡΕΣΕΙ Η ΔΟΥΛΕΙΑ ΜΟΥ ΚΑΙ ΘΕΛΕΤΕ ΝΑ ΜΕ ΣΤΗΡΙΞΕΤΕ,
ΚΑΝΤΕ ΕΝΑ ΛΟΓΑΡΙΑΣΜΟ ΓΙΑ EASYBYTEZ & UPLOADED
ΚΑΙ ΚΑΤΕΒΑΣΤΕ ΣΑΝ PREMIUM ΑΠΟ 20 ΔΙΑΦΟΡΕΤΙΚΟΥΣ HOST.

EasyBytez Premium Accounts

Για Uploaded απο Εδώ. http://ul.to/ref/3276399


Links Easybytez & Uploaded

Spoiler:

https://paste2.org/NdnOp85d

https://pastebin.com/evn5JSTG

Αγαπητοί φίλοι πολλές φορές ίσως σε κάποια λίνκ σας βγάζει «Server error»
η προβληματικός πάροχος η σφάλμα plugin έχει λήξει.
Αυτό δεν σημαίνει απαραίτητα ότι τα λίνκ είναι νεκρά. Δοκιμάστε το εξής.
Πάρ΄τε τα λίνκ ή το μονό λίνκ και κατεβάστε το με Browser….Δεξί κλίκ στο λίνκ και άνοιγμα σε νέο παράθυρο…
Θα σας ανοίξει μία καρτελίτσα και εσείς θα πατήσετε αποθήκευση, όχι άνοιγμα…
Αυτόματά το λίνκ θα κατέβει και θα αποθηκευτεί στο φάκελο που εσείς έχετε επιλέξει.

Αφήστε μια απάντηση

Chat - Μόνο Εγγεγραμμένοι Χρήστες
You must be signed in to post a comment
Mr.Planet
(Τετάρτη, Οκτ 18. 2017 11:18 ΠΜ)
naszach: που σου το κανει αυτο? στην αρχικη σελιδα η καπου αλλου?
naszach
(Τρίτη, Οκτ 17. 2017 07:29 ΜΜ)
σήμερα παίρνω το μήνυμα Your IP was banned by administrator. τι έγινε?
Mr.Planet
(Δευτέρα, Οκτ 16. 2017 06:24 ΜΜ)
email επικοινωνιας
[email protected]
Palios
(Δευτέρα, Οκτ 16. 2017 03:56 ΜΜ)
καλησπέρα παιδιά Mr.Planet μπορείς να μου στείλεις ένα email για να μιλλήσουμε ? ευχαριστώ
Mr.Planet
(Κυριακή, Οκτ 15. 2017 10:44 ΜΜ)
vag: σου εστειλα email.

1 · 2 · 3