Kατηγορίες

Traffic at a Glance

Pageviews 135.962

Days in Range 30

Average Daily Pageviews 4.532

From Search Results 9.069

Unique IPs 8.758

Last 30 minutes 147

Today 1.805

Yesterday 3.816

EX MACHINA / ΑΠΟ_ΜΗΧΑΝΗΣ (2015) BRRip XviD AC3-EVO {ENΣΩΜ. ΥΠΟΤ}

 

ΣΚΗΝΟΘΕΣΙΑ : Alex Garland
ΣΕΝΑΡΙΟ : Alex Garland
ΗΘΟΠΟΙΟΙ : Alicia Vikander, Domhnall Gleeson, Oscar Isaac
ΕΙΔΟΣ : Drama, Sci-Fi
ΠΡΕΜΙΕΡΑ : 12 March 2015 (Greece)
ΜΕΤΑΦΡΑΣΗ : Maestros
iMDB: http://www.imdb.com/title/tt0470752/

Υπόθεση

Ένας νεαρός ταλαντούχος προγραμματιστής επιλέγεται από έναν δισεκατομμυριούχο επιχειρηματία-εφευρέτη να γίνει ο αποκλειστικός μάρτυρας ενός πρωτοποριακού πειράματος. Απομονωμένος μαζί του σε ένα μυστικό εργαστήριο, πρέπει να αξιολογήσει την Έιβα, ένα θηλυκό ρομπότ με τεχνητή νοημοσύνη.

Spoiler:

Format : AVI
Format/Info : Audio Video Interleave
File size : 1.42 GiB
Duration : 1h 48mn
Overall bit rate : 1 887 Kbps
Writing application : VirtualDubMod 1.5.10.2 (build 2542/release)
Writing library : VirtualDub build 32661/release

Video
ID : 0
Format : MPEG-4 Visual
Format profile : Advanced [email protected]
Format settings, BVOP : 1
Format settings, QPel : No
Format settings, GMC : No warppoints
Format settings, Matrix : Default (H.263)
Muxing mode : Packed bitstream
Codec ID : XVID
Codec ID/Hint : XviD
Duration : 1h 48mn
Bit rate : 1 430 Kbps
Width : 720 pixels
Height : 304 pixels
Display aspect ratio : 2.35:1
Frame rate : 23.976 fps
Color space : YUV
Chroma subsampling : 4:2:0
Bit depth : 8 bits
Scan type : Progressive
Compression mode : Lossy
Bits/(Pixel*Frame) : 0.272
Stream size : 1.08 GiB (76%)
Writing library : XviD 64

Audio
ID : 1
Format : AC-3
Format/Info : Audio Coding 3
Mode extension : CM (complete main)
Format settings, Endianness : Big
Codec ID : 2000
Duration : 1h 48mn
Bit rate mode : Constant
Bit rate : 448 Kbps
Channel(s) : 6 channels
Channel positions : Front: L C R, Side: L R, LFE
Sampling rate : 48.0 KHz
Bit depth : 16 bits
Compression mode : Lossy
Stream size : 346 MiB (24%)
Alignment : Split accross interleaves
Interleave, duration : 42 ms (1.00 video frame)
Interleave, preload duration : 500 ms


ΑΝ ΣΑΣ ΑΡΕΣΕΙ Η ΔΟΥΛΕΙΑ ΜΟΥ ΚΑΙ ΘΕΛΕΤΕ ΝΑ ΜΕ ΣΤΗΡΙΞΕΤΕ,
ΚΑΝΤΕ ΕΝΑ ΛΟΓΑΡΙΑΣΜΟ ΓΙΑ EASYBYTEZ & UPLOADED
ΚΑΙ ΚΑΤΕΒΑΣΤΕ ΣΑΝ PREMIUM ΑΠΟ 20 ΔΙΑΦΟΡΕΤΙΚΟΥΣ HOST.

EasyBytez Premium Accounts

Για Uploaded απο Εδώ. http://ul.to/ref/3276399


Links Easybytez & Uploaded

Spoiler:

https://paste2.org/JGytKsk7

https://pastebin.com/Ei97nNuR

Αγαπητοί φίλοι πολλές φορές ίσως σε κάποια λίνκ σας βγάζει «Server error»
η προβληματικός πάροχος η σφάλμα plugin έχει λήξει.
Αυτό δεν σημαίνει απαραίτητα ότι τα λίνκ είναι νεκρά. Δοκιμάστε το εξής.
Πάρ΄τε τα λίνκ ή το μονό λίνκ και κατεβάστε το με Browser….Δεξί κλίκ στο λίνκ και άνοιγμα σε νέο παράθυρο…
Θα σας ανοίξει μία καρτελίτσα και εσείς θα πατήσετε αποθήκευση, όχι άνοιγμα…
Αυτόματά το λίνκ θα κατέβει και θα αποθηκευτεί στο φάκελο που εσείς έχετε επιλέξει.

Αφήστε μια απάντηση

Chat - Μόνο Εγγεγραμμένοι Χρήστες
You must be signed in to post a comment
Mr.Planet
(Τετάρτη, Οκτ 18. 2017 11:18 ΠΜ)
naszach: που σου το κανει αυτο? στην αρχικη σελιδα η καπου αλλου?
naszach
(Τρίτη, Οκτ 17. 2017 07:29 ΜΜ)
σήμερα παίρνω το μήνυμα Your IP was banned by administrator. τι έγινε?
Mr.Planet
(Δευτέρα, Οκτ 16. 2017 06:24 ΜΜ)
email επικοινωνιας
[email protected]
Palios
(Δευτέρα, Οκτ 16. 2017 03:56 ΜΜ)
καλησπέρα παιδιά Mr.Planet μπορείς να μου στείλεις ένα email για να μιλλήσουμε ? ευχαριστώ
Mr.Planet
(Κυριακή, Οκτ 15. 2017 10:44 ΜΜ)
vag: σου εστειλα email.

1 · 2 · 3