Kατηγορίες

Traffic at a Glance

Pageviews 135.969

Days in Range 30

Average Daily Pageviews 4.532

From Search Results 9.073

Unique IPs 8.758

Last 30 minutes 144

Today 1.812

Yesterday 3.816

VICE (2015) 480p BRRip XviD AC3-FAS {ΕΝΣΩΜ.ΥΠΟΤ}

Είδος: Action | Adventure | Sci-Fi
Πρεμιέρα: 16 January 2015 (USA)
Σκηνοθεσία: Brian A Miller
Σενάριο: Andre Fabrizio, Jeremy Passmore
Ηθοποιοί: Thomas Jane, Bruce Willis, Ambyr Childers
Απόδοση Διαλόγων: Adespoti – FoxyGroup (Big Thx)
iMDB: http://www.imdb.com/title/tt3480796/

Υπόθεση: Ο Τζούλιαν Μάικλς έχει σχεδιάσει το απόλυτο ριζόρτ: το Vice. Εκεί όλα μπορούν να συμβούν και οι πελάτες μπορούν να ζήσουν τις πιο άγριες φαντασιώσεις τους με τεχνητά πλασμένους ανθρώπους που μοιάζουν, σκέφτονται και αισθάνονται σαν να είναι κανονικοί. Μία από αυτούς αποκτά συνείδηση και δραπετεύει, για να βρεθεί ανάμεσα στα πυρά των μισθοφόρων του Μάικλς και ενός αστυνόμου που κάνει τα πάντα για να κλείσει το απάνθρωπο ριζόρτ.

Spoiler:

Format : AVI
Format/Info : Audio Video Interleave
File size : 1.65 GiB
Duration : 1h 36mn
Overall bit rate : 2 455 Kbps
Writing application : VirtualDubMod 1.5.10.2 (build 2542/release)
Writing library : VirtualDubMod build 2542/release

Video
ID : 0
Format : MPEG-4 Visual
Format profile : Advanced [email protected]
Format settings, BVOP : 1
Format settings, QPel : No
Format settings, GMC : No warppoints
Format settings, Matrix : Default (H.263)
Muxing mode : Packed bitstream
Codec ID : XVID
Codec ID/Hint : XviD
Duration : 1h 36mn
Bit rate : 1 999 Kbps
Width : 848 pixels
Height : 352 pixels
Display aspect ratio : 2.40:1
Frame rate : 23.976 fps
Color space : YUV
Chroma subsampling : 4:2:0
Bit depth : 8 bits
Scan type : Progressive
Compression mode : Lossy
Bits/(Pixel*Frame) : 0.279
Stream size : 1.35 GiB (81%)
Writing library : XviD 64

Audio
ID : 1
Format : AC-3
Format/Info : Audio Coding 3
Mode extension : CM (complete main)
Format settings, Endianness : Big
Codec ID : 2000
Duration : 1h 36mn
Bit rate mode : Constant
Bit rate : 448 Kbps
Channel count : 6 channels
Channel positions : Front: L C R, Side: L R, LFE
Sampling rate : 48.0 KHz
Bit depth : 16 bits
Compression mode : Lossy
Stream size : 309 MiB (18%)
Alignment : Split accross interleaves
Interleave, duration : 64 ms (1.53 video frames)
Interleave, preload duration : 500 ms

 


ΑΝ ΣΑΣ ΑΡΕΣΕΙ Η ΔΟΥΛΕΙΑ ΜΟΥ ΚΑΙ ΘΕΛΕΤΕ ΝΑ ΜΕ ΣΤΗΡΙΞΕΤΕ,
ΚΑΝΤΕ ΕΝΑ ΛΟΓΑΡΙΑΣΜΟ ΓΙΑ EASYBYTEZ & UPLOADED
ΚΑΙ ΚΑΤΕΒΑΣΤΕ ΣΑΝ PREMIUM ΑΠΟ 20 ΔΙΑΦΟΡΕΤΙΚΟΥΣ HOST.

EasyBytez Premium Accounts

Για Uploaded απο Εδώ. http://ul.to/ref/3276399


Links Easybytez & Uploaded

Spoiler:

https://paste2.org/XvfZWgwD

https://pastebin.com/2HJWSX0B

Αγαπητοί φίλοι πολλές φορές ίσως σε κάποια λίνκ σας βγάζει «Server error»
η προβληματικός πάροχος η σφάλμα plugin έχει λήξει.
Αυτό δεν σημαίνει απαραίτητα ότι τα λίνκ είναι νεκρά. Δοκιμάστε το εξής.
Πάρ΄τε τα λίνκ ή το μονό λίνκ και κατεβάστε το με Browser….Δεξί κλίκ στο λίνκ και άνοιγμα σε νέο παράθυρο…
Θα σας ανοίξει μία καρτελίτσα και εσείς θα πατήσετε αποθήκευση, όχι άνοιγμα…
Αυτόματά το λίνκ θα κατέβει και θα αποθηκευτεί στο φάκελο που εσείς έχετε επιλέξει.

Αφήστε μια απάντηση

Chat - Μόνο Εγγεγραμμένοι Χρήστες
You must be signed in to post a comment
Mr.Planet
(Τετάρτη, Οκτ 18. 2017 11:18 ΠΜ)
naszach: που σου το κανει αυτο? στην αρχικη σελιδα η καπου αλλου?
naszach
(Τρίτη, Οκτ 17. 2017 07:29 ΜΜ)
σήμερα παίρνω το μήνυμα Your IP was banned by administrator. τι έγινε?
Mr.Planet
(Δευτέρα, Οκτ 16. 2017 06:24 ΜΜ)
email επικοινωνιας
[email protected]
Palios
(Δευτέρα, Οκτ 16. 2017 03:56 ΜΜ)
καλησπέρα παιδιά Mr.Planet μπορείς να μου στείλεις ένα email για να μιλλήσουμε ? ευχαριστώ
Mr.Planet
(Κυριακή, Οκτ 15. 2017 10:44 ΜΜ)
vag: σου εστειλα email.

1 · 2 · 3