Kατηγορίες

Traffic at a Glance

Pageviews 134.770

Days in Range 30

Average Daily Pageviews 4.492

From Search Results 8.953

Unique IPs 8.672

Last 30 minutes 54

Today 613

Yesterday 3.816

BEATRIZ AT DINNER (2017) HDRip XViD AC3 {ENΣΩΜ.ΥΠΟΤ}

 

Είδος Ταινίας : Comedy, Drama
Διάρκεια : 1 h 21 min
Σκηνοθεσία : Miguel Arteta
Σενάριο : Mike White
Ηθοποιοί : Salma Hayek, John Lithgow, Connie Britton
Μεταφραση : Άγνωστος
IMDB : http://www.imdb.com/title/tt5929750/

Υπόθεση

Η Μπεατρίζ, μια μετανάστρια από φτωχή πόλη του Μεξικού, έχει επηρεαστεί από την έμφυτη καλοσύνης της χτίζοντας καριέρα ως πνευματικός θεραπευτής υγείας στο Λος Άντζελες. Ο Νταγκ Στρατ, από την άλλη, είναι ένας ανελέητος, αυτό-ικανοποιούμενος δισεκατομμυριούχος κατασκευαστής ακινήτων. Όταν αυτοί οι δύο αντίθετοι χαρακτήρες συναντιούνται σε πάρτι, οι κόσμοι τους συγκρούονται και κανείς τους δεν θα παραμείνει ο ίδιος ποτέ ξανά.

Spoiler:

Format : AVI
Format/Info : Audio Video Interleave
File size : 1.27 GiB
Duration : 1 h 21 min
Overall bit rate : 2 221 kb/s
Writing application : VirtualDubMod 1.5.10.2 (build 2542/release)
Writing library : VirtualDubMod build 2542/release

Video
ID : 0
Format : MPEG-4 Visual
Format profile : Advanced [email protected]
Format settings, BVOP : 1
Format settings, QPel : No
Format settings, GMC : No warppoints
Format settings, Matrix : Default (H.263)
Muxing mode : Packed bitstream
Codec ID : XVID
Codec ID/Hint : XviD
Duration : 1 h 21 min
Bit rate : 1 829 kb/s
Width : 720 pixels
Height : 400 pixels
Display aspect ratio : 16:9
Frame rate : 23.976 (24000/1001) FPS
Color space : YUV
Chroma subsampling : 4:2:0
Bit depth : 8 bits
Scan type : Progressive
Compression mode : Lossy
Bits/(Pixel*Frame) : 0.265
Stream size : 1.04 GiB (82%)
Writing library : XviD 64

Audio
ID : 1
Format : AC-3
Format/Info : Audio Coding 3
Format settings, Endianness : Big
Codec ID : 2000
Duration : 1 h 21 min
Bit rate mode : Constant
Bit rate : 384 kb/s
Channel(s) : 6 channels
Channel positions : Front: L C R, Side: L R, LFE
Sampling rate : 48.0 kHz
Frame rate : 31.250 FPS (1536 SPF)
Bit depth : 16 bits
Compression mode : Lossy
Stream size : 224 MiB (17%)
Alignment : Split accross interleaves
Interleave, duration : 64 ms (1.53 video frames)
Interleave, preload duration : 500 ms
Service kind : Complete Main


ΑΝ ΣΑΣ ΑΡΕΣΕΙ Η ΔΟΥΛΕΙΑ ΜΟΥ ΚΑΙ ΘΕΛΕΤΕ ΝΑ ΜΕ ΣΤΗΡΙΞΕΤΕ,
ΚΑΝΤΕ ΕΝΑ ΛΟΓΑΡΙΑΣΜΟ ΓΙΑ EASYBYTEZ & UPLOADED
ΚΑΙ ΚΑΤΕΒΑΣΤΕ ΣΑΝ PREMIUM ΑΠΟ 20 ΔΙΑΦΟΡΕΤΙΚΟΥΣ HOST.

EasyBytez Premium Accounts

Για Uploaded απο Εδώ. http://ul.to/ref/3276399


Links Easybytez & Uploaded

Spoiler:

https://paste2.org/6ZUUn36d

https://pastebin.com/LZNq51d3

Αγαπητοί φίλοι πολλές φορές ίσως σε κάποια λίνκ σας βγάζει «Server error»
η προβληματικός πάροχος η σφάλμα plugin έχει λήξει.
Αυτό δεν σημαίνει απαραίτητα ότι τα λίνκ είναι νεκρά. Δοκιμάστε το εξής.
Πάρ΄τε τα λίνκ ή το μονό λίνκ και κατεβάστε το με Browser….Δεξί κλίκ στο λίνκ και άνοιγμα σε νέο παράθυρο…
Θα σας ανοίξει μία καρτελίτσα και εσείς θα πατήσετε αποθήκευση, όχι άνοιγμα…
Αυτόματά το λίνκ θα κατέβει και θα αποθηκευτεί στο φάκελο που εσείς έχετε επιλέξει.

Αφήστε μια απάντηση

Chat - Μόνο Εγγεγραμμένοι Χρήστες
You must be signed in to post a comment
naszach
(Τρίτη, Οκτ 17. 2017 07:29 ΜΜ)
σήμερα παίρνω το μήνυμα Your IP was banned by administrator. τι έγινε?
Mr.Planet
(Δευτέρα, Οκτ 16. 2017 06:24 ΜΜ)
email επικοινωνιας
[email protected]
Palios
(Δευτέρα, Οκτ 16. 2017 03:56 ΜΜ)
καλησπέρα παιδιά Mr.Planet μπορείς να μου στείλεις ένα email για να μιλλήσουμε ? ευχαριστώ
Mr.Planet
(Κυριακή, Οκτ 15. 2017 10:44 ΜΜ)
vag: σου εστειλα email.
vag
(Κυριακή, Οκτ 15. 2017 07:16 ΜΜ)
καλλιτέχνες μου διαχειριστές γειά σας .ειμαι μεταφραστής έχετε καποιο email να σας στείλω 3 καλές ταινιούλες με ενσωμαρωμένους;

1 · 2 · 3