Kατηγορίες

Traffic at a Glance

Pageviews 134.779

Days in Range 30

Average Daily Pageviews 4.493

From Search Results 8.954

Unique IPs 8.673

Last 30 minutes 39

Today 622

Yesterday 3.816

CHURCHILL (2017) 720p BluRay x264-VETO {ΞΕΧΩΡ.ΥΠΟΤ}

 

Αυθεντικός Τίτλος: Churchill
Είδος Ταινίας: Biography, Drama, Thriller
Πρεμιέρα στην Αγγλία: 16 June 2017
Σκηνοθέτης: Jonathan Teplitzky
Σενάριο: Alex von Tunzelmann
Ηθοποιοί: Brian Cox, Miranda Richardson, John Slattery
Υπότιτλοι: Eλληνικοί, Ξεχωριστοί
Μετάφραση: JACK SPARROW
IMDB : http://www.imdb.com/title/tt2674454/

Υπόθεση

Ιούνιος του 1944. Οι δυνάμεις των Συμμάχων στέκονται στο χείλος του γκρεμού. Ένας τεράστιος στρατός έχει μυστικά μαζευτεί στις νότιες ακτές της Βρετανίας, έτοιμοι να ανακτήσουν την κατακτημένη από τους ναζί Ευρώπη. Ένας άντρας βρίσκεται στον δρόμο τους: ο Ουίνστον Τσόρτσιλ. Πίσω από την εικονική του φιγούρα και τους ευφάνταστους λόγους, βρίσκεται ένας άντρας που έχει έρθει αντιμέτωπος με τον πολιτικό εξευτελισμό, τη στρατιωτική αποτυχία και την οργανική δυσκολία στο να εκφέρει λόγο. Φοβούμενος μην επαναληφθεί η τρομακτική σφαγή του 1915 στις ακτές της Καλλίπολης, και καταβεβλημένος από τα χρόνια του πολέμου, ο βρετανός πρωθυπουργός είναι η σκιά του ήρωα που αμύνθηκε στη μαζική επίθεση του Χίτλερ. Αν η απόβαση τώρα αποτύχει, τρομοκρατείται στην ιδέα να τον θυμούνται ως τον αρχιτέκτονα της σφαγής. Οι πολιτικοί του αντίπαλοι ακονίζουν τα μαχαίρια τους, ο στρατηγός Αϊζενχάουερ και ο στρατάρχης Μοντγκόμερι είναι αντίθετοι στις προσπάθειες του Τσόρτσιλ να σταματήσει την επιχείρηση. Ο βασιλιάς Γεώργιος ο 6ος πρέπει να μεσολαβήσει. Μόνο με τη συμπαράσταση της ευφυούς, αλλά ευαίξαπτης συζύγου του, Κλεμεντίν, ο πρωθυπουργός μπορεί να αποφύγει τη φυσική και πνευματική κατάπτωση.

Spoiler:

\churchill.2017.720p.bluray.x264-veto.mkv
Format : Matroska
Format version : Version 4 / Version 2
File size : 4.37 GiB
Duration : 1h 45mn
Overall bit rate : 5 950 Kbps
Encoded date : UTC 2017-09-13 17:23:27
Writing application : mkvmerge v10.0.0 (‘To Drown In You’) 64bit
Writing library : libebml v1.3.4 + libmatroska v1.4.5
DURATION : 01:45:04.022000000
NUMBER_OF_FRAMES : 591002
NUMBER_OF_BYTES : 1189096024
_STATISTICS_WRITING_APP : mkvmerge v10.0.0 (‘To Drown In You’) 64bit
_STATISTICS_WRITING_DATE_UTC : 2017-09-13 17:23:27
_STATISTICS_TAGS : BPS DURATION NUMBER_OF_FRAMES NUMBER_OF_BYTES

Video
ID : 1
Format : AVC
Format/Info : Advanced Video Codec
Format profile : [email protected]
Format settings, CABAC : Yes
Format settings, ReFrames : 5 frames
Codec ID : V_MPEG4/ISO/AVC
Duration : 1h 45mn
Bit rate : 4 440 Kbps
Width : 1 280 pixels
Height : 536 pixels
Display aspect ratio : 2.40:1
Frame rate mode : Constant
Frame rate : 24.000 fps
Color space : YUV
Chroma subsampling : 4:2:0
Bit depth : 8 bits
Scan type : Progressive
Bits/(Pixel*Frame) : 0.270
Stream size : 3.17 GiB (73%)
Writing library : x264 core 152 r2851 ba24899
Encoding settings : cabac=1 / ref=5 / deblock=1:-1:-1 / analyse=0x3:0x133 / me=umh / subme=8 / psy=1 / psy_rd=1.00:0.15 / mixed_ref=1 / me_range=16 / chroma_me=1 / trellis=1 / 8x8dct=1 / cqm=0 / deadzone=21,11 / fast_pskip=0 / chroma_qp_offset=-4 / threads=17 / lookahead_threads=2 / sliced_threads=0 / nr=0 / decimate=1 / interlaced=0 / bluray_compat=0 / constrained_intra=0 / bframes=3 / b_pyramid=2 / b_adapt=2 / b_bias=0 / direct=3 / weightb=1 / open_gop=0 / weightp=2 / keyint=240 / keyint_min=23 / scenecut=40 / intra_refresh=0 / rc_lookahead=50 / rc=2pass / mbtree=1 / bitrate=4440 / ratetol=1.0 / qcomp=0.60 / qpmin=10 / qpmax=69 / qpstep=4 / cplxblur=20.0 / qblur=0.5 / ip_ratio=1.40 / aq=1:1.00
Language : English
Default : Yes
Forced : No

Audio
ID : 2
Format : DTS
Format/Info : Digital Theater Systems
Mode : 16
Format settings, Endianness : Big
Codec ID : A_DTS
Duration : 1h 45mn
Bit rate mode : Constant
Bit rate : 1 509 Kbps
Channel(s) : 6 channels
Channel positions : Front: L C R, Side: L R, LFE
Sampling rate : 48.0 KHz
Bit depth : 24 bits
Compression mode : Lossy
Stream size : 1.11 GiB (25%)
Language : English
Default : Yes
Forced : No


ΑΝ ΣΑΣ ΑΡΕΣΕΙ Η ΔΟΥΛΕΙΑ ΜΟΥ ΚΑΙ ΘΕΛΕΤΕ ΝΑ ΜΕ ΣΤΗΡΙΞΕΤΕ,
ΚΑΝΤΕ ΕΝΑ ΛΟΓΑΡΙΑΣΜΟ ΓΙΑ EASYBYTEZ & UPLOADED
ΚΑΙ ΚΑΤΕΒΑΣΤΕ ΣΑΝ PREMIUM ΑΠΟ 20 ΔΙΑΦΟΡΕΤΙΚΟΥΣ HOST.

EasyBytez Premium Accounts

Για Uploaded απο Εδώ. http://ul.to/ref/3276399


Links Easybytez & Uploaded

Spoiler:

https://paste2.org/GYDOECp1

https://pastebin.com/5SSBdQay

Αγαπητοί φίλοι πολλές φορές ίσως σε κάποια λίνκ σας βγάζει «Server error»
η προβληματικός πάροχος η σφάλμα plugin έχει λήξει.
Αυτό δεν σημαίνει απαραίτητα ότι τα λίνκ είναι νεκρά. Δοκιμάστε το εξής.
Πάρ΄τε τα λίνκ ή το μονό λίνκ και κατεβάστε το με Browser….Δεξί κλίκ στο λίνκ και άνοιγμα σε νέο παράθυρο…
Θα σας ανοίξει μία καρτελίτσα και εσείς θα πατήσετε αποθήκευση, όχι άνοιγμα…
Αυτόματά το λίνκ θα κατέβει και θα αποθηκευτεί στο φάκελο που εσείς έχετε επιλέξει.

Αφήστε μια απάντηση

Chat - Μόνο Εγγεγραμμένοι Χρήστες
You must be signed in to post a comment
naszach
(Τρίτη, Οκτ 17. 2017 07:29 ΜΜ)
σήμερα παίρνω το μήνυμα Your IP was banned by administrator. τι έγινε?
Mr.Planet
(Δευτέρα, Οκτ 16. 2017 06:24 ΜΜ)
email επικοινωνιας
[email protected]
Palios
(Δευτέρα, Οκτ 16. 2017 03:56 ΜΜ)
καλησπέρα παιδιά Mr.Planet μπορείς να μου στείλεις ένα email για να μιλλήσουμε ? ευχαριστώ
Mr.Planet
(Κυριακή, Οκτ 15. 2017 10:44 ΜΜ)
vag: σου εστειλα email.
vag
(Κυριακή, Οκτ 15. 2017 07:16 ΜΜ)
καλλιτέχνες μου διαχειριστές γειά σας .ειμαι μεταφραστής έχετε καποιο email να σας στείλω 3 καλές ταινιούλες με ενσωμαρωμένους;

1 · 2 · 3