Kατηγορίες

Traffic at a Glance

Pageviews 109.717

Days in Range 30

Average Daily Pageviews 3.657

From Search Results 10.134

Unique IPs 9.000

Last 30 minutes 131

Today 2.392

Yesterday 3.799

ΠΑΡΘΕΝΑ ΖΩΗ (2017) ΑΝΤ1 TVRip HD – Episode 3 added

 

 

Μια παρθένα, ένα ατύχημα και μία εγκυμοσύνη που έρχεται με τον πιο απίθανο τρόπο, μια σχέση που ξεκινάει «αντίστροφα», η σύγκρουση δύο διαφορετικών κόσμων
και ένα πολύ μεγάλο μυστικό σε ένα απίστευτο love story…
Η «Παρθένα Ζωή», μία καθημερινή, αισθηματική κομεντί που συνδυάζει το ρομαντισμό με το ρεαλισμό και τη συγκίνηση με το γέλιο, έρχεται αυτό το Σεπτέμβριο κ
αθημερινά στον ΑΝΤΕΝΝΑ!

Η νέα, καθημερινή, αισθηματική κομεντί, με τίτλο «Παρθένα Ζωή», μας παρουσιάζει μία όχι και τόσο συνηθισμένη ιστορία για την ηρωίδα μας, η οποία αν και παρθένα μένει
έγκυος!

Η Ζωή είναι μία 19χρονη κοπέλα, γεμάτη όνειρα για το μέλλον. Ζει με την οικογένειά της, έχει σχέση, αλλά είναι ακόμα παρθένα. Μία γυναικολογική εξέταση ρουτίνας
και ένα ιατρικό λάθος θα αλλάξουν τη ζωή της αλλά και τη ζωή των ανθρώπων γύρω της, για πάντα!
Η «Παρθένα Ζωή» βασισμένη στη σειρά, “Juana La Virgen” από τη Λατινική Αμερική, έχει ήδη κάνει «πάταγο» σε όλες τις χώρες προβολής της και «ταξιδεύει»
για πρώτη φορά στην Ελλάδα για να μεταφέρει στις οθόνες μας, ένα μοντέρνο παραμύθι για έναν αληθινό έρωτα γεμάτο μυστικά, διλήμματα, σημερινούς ήρωες
και κρυφούς «δράκους».

Στη σειρά θα δούμε ένα μεγάλο καστ ταλαντούχων ηθοποιών με γνωστά, αγαπημένα αλλά και πρωτοεμφανιζόμενα, φρέσκα πρόσωπα. Τη σκηνοθεσία υπογράφει
ο Πιέρρος Ανδρακάκος μαζί με τον Αλέξανδρο Πανταζούδη και τον Σπύρο Μιχαλόπουλο. Όλοι μαζί ενώνουν τις δυνάμεις τους και θα μας παρασύρουν
σ’ ένα σπιράλ περιπέτειας και ανατροπών, υπενθυμίζοντάς μας ότι στη ζωή τίποτα δεν είναι τυχαίο! Ούτε και το ατύχημα!

H Ιστορία:
Η Ζωή (Σοφίνα Λαζαράκη) έχει σχέση με τον Μάκη (Γιάννης Χατζηγεωργίου), ο οποίος είναι και ο πρώτος της έρωτας. Είναι παρθένα αλλά μένει έγκυος! Πώς;
Κατά τη διάρκεια της επίσκεψής της σε μια κλινική, για μια απλή γυναικολογική εξέταση, θα κάνουν σ’ εκείνη, τη σπερματέγχυση
που είχε προγραμματιστεί για μια άλλη γυναίκα, που βρίσκεται εκείνη την ώρα στο διπλανό δωμάτιο. Ο Άρης (Αποστόλης Τότσικας) και η γυναίκα του,
η Μαρίνα (Μυριέλα Κουρεντή) – η άλλη γυναίκα -, προσπαθούν να κάνουν παιδί με σπερματέγχυση. Ωστόσο, η Μαρίνα κρύβει ένα μεγάλο μυστικό.
Η Ζωή μετά την ανακοίνωση ότι είναι έγκυος, αποφασίζει να κρατήσει το μωρό χωρίς να ξέρει ποιος είναι ο πατέρας, ενώ ο Άρης δεν ξέρει ότι η Ζωή
είναι έγκυος στο παιδί του. H Ζωή, κυνηγώντας το όνειρό της, πιάνει δουλειά ως φωτογράφος, στην εταιρεία του Άρη, ενώ ο κολλητός του, Παύλος (Γιάννης Ποιμενίδης),
την ερωτεύεται και τη διεκδικεί.
Στο μεταξύ, η Ζωή με τον Άρη θα έρθουν κοντά και ηρωίδα μας, θα ερωτευτεί εν αγνοία της, τον πατέρα του παιδιού της. Η αποκάλυψη του πως η Ζωή έμεινε έγκυος
αλλά και ποιος είναι ο πραγματικός πατέρας του παιδιού που κυοφορεί, θα φέρει τα πάνω κάτω στις ζωές όλων..
Τι θα κάνει η Ζωή που βρίσκεται ξαφνικά έγκυος και παρθένα, ανάμεσα σε δύο άντρες και με την οικογένειά της «απέναντι»;

Spoiler:

Complete name :ZOYLA.EP.01.avi
Format : AVI
Format/Info : Audio Video Interleave
File size : 949 MiB
Duration : 43 min 43 s
Overall bit rate : 3 036 kb/s
Video #0
ID : 0
Format : AVC
Format/Info : Advanced Video Codec
Format profile : [email protected]
Format settings, CABAC : No
Format settings, ReFrames : 1 frame
Codec ID : H264
Duration : 43 min 43 s
Bit rate : 2 894 kb/s
Width : 1 920 pixels
Height : 1 080 pixels
Display aspect ratio : 16:9
Frame rate : 25.000 FPS
Color space : YUV
Chroma subsampling : 4:2:0
Bit depth : 8 bits
Scan type : Progressive
Bits/(Pixel*Frame) : 0.056
Stream size : 905 MiB (95%)
Writing library : x264 core 146 r2538 121396c

Audio #1
ID : 1
Format : MPEG Audio
Format version : Version 1
Format profile : Layer 3
Codec ID : 55
Codec ID/Hint : MP3
Duration : 43 min 42 s
Bit rate mode : Constant
Bit rate : 128 kb/s
Channel(s) : 2 channels
Sampling rate : 48.0 kHz
Compression mode : Lossy
Stream size : 40.0 MiB (4%)
Alignment : Aligned on interleaves
Interleave, duration : 24 ms (0.60 video frame)


ΑΝ ΣΑΣ ΑΡΕΣΕΙ Η ΔΟΥΛΕΙΑ ΜΟΥ ΚΑΙ ΘΕΛΕΤΕ ΝΑ ΜΕ ΣΤΗΡΙΞΕΤΕ,
ΚΑΝΤΕ ΕΝΑ ΛΟΓΑΡΙΑΣΜΟ ΓΙΑ EASYBYTEZ & UPLOADED
ΚΑΙ ΚΑΤΕΒΑΣΤΕ ΣΑΝ PREMIUM ΑΠΟ 20 ΔΙΑΦΟΡΕΤΙΚΟΥΣ HOST.

EasyBytez Premium Accounts

Για Uploaded απο Εδώ. http://ul.to/ref/3276399


Links Easybytez & Uploaded

Spoiler:

https://paste2.org/BUeCKAGX

 

Αγαπητοί φίλοι πολλές φορές ίσως σε κάποια λίνκ σας βγάζει «Server error»
η προβληματικός πάροχος η σφάλμα plugin έχει λήξει.
Αυτό δεν σημαίνει απαραίτητα ότι τα λίνκ είναι νεκρά. Δοκιμάστε το εξής.
Πάρ΄τε τα λίνκ ή το μονό λίνκ και κατεβάστε το με Browser….Δεξί κλίκ στο λίνκ και άνοιγμα σε νέο παράθυρο…
Θα σας ανοίξει μία καρτελίτσα και εσείς θα πατήσετε αποθήκευση, όχι άνοιγμα…
Αυτόματά το λίνκ θα κατέβει και θα αποθηκευτεί στο φάκελο που εσείς έχετε επιλέξει.

Αφήστε μια απάντηση

Chat - Μόνο Εγγεγραμμένοι Χρήστες
You must be signed in to post a comment
Mr.Planet
(Παρασκευή, Νοέ 17. 2017 11:24 ΠΜ)
θερμη παρακληση:
οταν βλεπετε νεκρα η προβληματικα λινκς να το γραφεται στο chat για να αντικαταστησω αμεσα…
σας ευχαριστω!!
Mr.Planet
(Παρασκευή, Νοέ 17. 2017 11:22 ΠΜ)
Kαλημερα στην παρεα που ολο πιο πολυ μεγαλώνει.
Mr.Planet
(Σάββατο, Νοέ 11. 2017 07:28 ΜΜ)
To Chat προσφερεται για βοηθεια οχι για να γραφεται ευχαριστω…
george300
(Σάββατο, Νοέ 11. 2017 06:57 ΜΜ)
ευχαριστώ πολύ
billyalex
(Τρίτη, Νοέ 7. 2017 09:47 ΜΜ)
thanx

1 · 2