Kατηγορίες

Traffic at a Glance

Pageviews 109.051

Days in Range 30

Average Daily Pageviews 3.635

From Search Results 10.104

Unique IPs 8.949

Last 30 minutes 116

Today 1.726

Yesterday 3.799

ΕΛΑ ΣΤΗ ΘΕΣΗ ΜΟΥ Β΄ΚΥΚΛΟΣ – ALPHA (2017) TVRip – Episode 8-9 added

 

Το σενάριο υπογράφει ο Γιώργος Κρητικός και τη σκηνοθεσία ο Γιάννης Βασιλειάδης, ο Σπύρος Ρασιδάκης και ο Βασίλης Τσελεμέγκος.

Στους πρωταγωνιστικούς ρόλους οι: Γιάννης Τσιμιτσέλης, Αθηνά Οικονομάκου, Μιχάλης Μαρίνος, Μαρίνος Κόνσολος, Ευαγγελία Συριοπούλου, Ναταλία Δραγούμη, Άνδρη Θεοδότου,
Χάρης Γρηγορόπουλος, Μαρία Ανδρούτσου, Αναστάσης Κολοβός, Πάνος Σταθακόπουλος, Ερμόλαος Ματθαίου, Εύα Δαελή, Νικόλας Απέργης, Καλή Δάβρη, Αναστασία Παντούση,
Ορέστης Καρύδας, Βασιλική Αγγέλη κ.α.
Στο ρόλο της Αιμιλίας, η Μαρία Φιλίππου
Στο ρόλο του Λεωνίδα, ο Παύλος Ευαγγελόπουλος

Εκτέλεση παραγωγής J.K. Productions – ΚΑΡΑΓΙΑΝΝΗΣ

Έχουν περάσει λίγες μόνο μέρες από τότε που αφήσαμε τους ήρωές μας, αλλά όλα έχουν αλλάξει! Η Ρενάτα αγνοείται και ο Αχιλλέας την ψάχνει σαν τρελός. Η Αιμιλία και
ο Βλάσης πρέπει να μάθουν να ζουν στην φτώχεια, ενώ η Φαίη και ο Δαμιανός λύνουν και δένουν στην εταιρία και την έπαυλη. Και σαν να μην έφταναν αυτά, μία μυστηριώδης
γυναίκα φτάνει στην Αθήνα, κρύβοντας μυστικά που θα ανακατέψουν την τράπουλα των εξελίξεων. Και δεν είναι η μόνη νέα άφιξη στις ζωές των παλιόφιλών μας. Μόνο να ήξεραν
τι τους περιμένει φέτος… Ελάτε στη θέση τους, ξανά!

Νέα σεζόν, νέα βάσανα για την οικογένεια Σοφοκλέους! Η αγαπημένη καθημερινή κωμική σειρά, «Έλα στη Θέση μου» επιστρέφει στον Alpha

Φέτος, η πανίσχυρη Αιμιλία και οι γιοι της, Βλάσης και Αχιλλέας, βρίσκονται πλέον σε μειονεκτική θέση, αφού η Sofo Express International έχει περάσει στα χέρια
του Δαμιανού, της Φαίης και της Σύλβιας. Ο μεγάλος κίνδυνος, όμως, έρχεται απ’ «έξω», και ακούει στο όνομα Μένη Σουλτς (Ναταλία Δραγούμη). Η σκληρή Ελληνογερμανίδα
με καταγωγή από την Κοζάνη έχει ένα κρυμμένο μυστικό που τη συνδέει με την οικογένεια Σοφοκλέους και φέρνει μαζί της ένα «τσουνάμι» εξελίξεων και ανατροπών.
Όσο άσχημα εξελίσσονται τα πράγματα για την επαγγελματική ζωή των ηρώων, άλλο τόσο ταραχώδης είναι και η προσωπική τους ζωή. Τι θα γίνει με τις διαλυμένες σχέσεις
των Βλάση – Φαίης και Αχιλλέα – Ρενάτας; Θα τα βρουν μεταξύ τους; Θα προσπαθήσουν να λύσουν τις διαφορές τους; Κανείς δεν ξέρει. Ειδικά όταν, στην ήδη εκρηκτική εξίσωση,
μπαίνουν η Βασιλίνα (Αναστασία Παντούση) και ο Γιαν (Ορέστης Καρύδας), τα δύο παιδιά της Μένης Σουλτς. Η τράπουλα, για όλους και για όλα, ανακατεύεται ξανά
και κανείς δεν ξέρει το φύλλο που θα τραβήξει!

Η σειρά βασίζεται στην τηλενουβέλα «Nuevo Rico Nuevo Pobre».

Spoiler:

Complete name :ELA.S02.EP.01.avi
Format : AVI
Format/Info : Audio Video Interleave
File size : 1.36 GiB
Duration : 47 min 53 s
Overall bit rate : 4 067 kb/s
Video #0
ID : 0
Format : AVC
Format/Info : Advanced Video Codec
Format profile : [email protected]
Format settings, CABAC : No
Format settings, ReFrames : 1 frame
Codec ID : H264
Duration : 47 min 53 s
Bit rate : 3 925 kb/s
Width : 640 pixels
Height : 352 pixels
Display aspect ratio : 16:9
Frame rate : 25.000 FPS
Color space : YUV
Chroma subsampling : 4:2:0
Bit depth : 8 bits
Scan type : Progressive
Bits/(Pixel*Frame) : 0.697
Stream size : 1.31 GiB (97%)
Writing library : x264 core 146 r2538 121396c

Audio #1
ID : 1
Format : MPEG Audio
Format version : Version 1
Format profile : Layer 3
Codec ID : 55
Codec ID/Hint : MP3
Duration : 47 min 53 s
Bit rate mode : Constant
Bit rate : 128 kb/s
Channel(s) : 2 channels
Sampling rate : 48.0 kHz
Compression mode : Lossy
Stream size : 43.8 MiB (3%)
Alignment : Aligned on interleaves
Interleave, duration : 24 ms (0.60 video frame)


ΑΝ ΣΑΣ ΑΡΕΣΕΙ Η ΔΟΥΛΕΙΑ ΜΟΥ ΚΑΙ ΘΕΛΕΤΕ ΝΑ ΜΕ ΣΤΗΡΙΞΕΤΕ,
ΚΑΝΤΕ ΕΝΑ ΛΟΓΑΡΙΑΣΜΟ ΓΙΑ EASYBYTEZ & UPLOADED
ΚΑΙ ΚΑΤΕΒΑΣΤΕ ΣΑΝ PREMIUM ΑΠΟ 20 ΔΙΑΦΟΡΕΤΙΚΟΥΣ HOST.

EasyBytez Premium Accounts

Για Uploaded απο Εδώ. http://ul.to/ref/3276399


Links Easybytez & Uploaded

Spoiler:

https://paste2.org/3DDD7VOB

Αγαπητοί φίλοι πολλές φορές ίσως σε κάποια λίνκ σας βγάζει «Server error»
η προβληματικός πάροχος η σφάλμα plugin έχει λήξει.
Αυτό δεν σημαίνει απαραίτητα ότι τα λίνκ είναι νεκρά. Δοκιμάστε το εξής.
Πάρ΄τε τα λίνκ ή το μονό λίνκ και κατεβάστε το με Browser….Δεξί κλίκ στο λίνκ και άνοιγμα σε νέο παράθυρο…
Θα σας ανοίξει μία καρτελίτσα και εσείς θα πατήσετε αποθήκευση, όχι άνοιγμα…
Αυτόματά το λίνκ θα κατέβει και θα αποθηκευτεί στο φάκελο που εσείς έχετε επιλέξει.

Αφήστε μια απάντηση

Chat - Μόνο Εγγεγραμμένοι Χρήστες
You must be signed in to post a comment
Mr.Planet
(Παρασκευή, Νοέ 17. 2017 11:24 ΠΜ)
θερμη παρακληση:
οταν βλεπετε νεκρα η προβληματικα λινκς να το γραφεται στο chat για να αντικαταστησω αμεσα…
σας ευχαριστω!!
Mr.Planet
(Παρασκευή, Νοέ 17. 2017 11:22 ΠΜ)
Kαλημερα στην παρεα που ολο πιο πολυ μεγαλώνει.
Mr.Planet
(Σάββατο, Νοέ 11. 2017 07:28 ΜΜ)
To Chat προσφερεται για βοηθεια οχι για να γραφεται ευχαριστω…
george300
(Σάββατο, Νοέ 11. 2017 06:57 ΜΜ)
ευχαριστώ πολύ
billyalex
(Τρίτη, Νοέ 7. 2017 09:47 ΜΜ)
thanx

1 · 2