Kατηγορίες

Traffic at a Glance

Pageviews 107.739

Days in Range 30

Average Daily Pageviews 3.591

From Search Results 10.020

Unique IPs 8.863

Last 30 minutes 9

Today 414

Yesterday 3.799

MAUDIE (2017) BRRip XviD AC3-RARBG {ΕΝΣΩΜ.ΥΠΟΤ}

 

ΣΚΗΝΟΘΕΣΙΑ : Aisling Walsh
ΣΕΝΑΡΙΟ : Sherry White
ΗΘΟΠΟΙΟΙ : Sally Hawkins, Ethan Hawke, Kari Matchett
ΕΙΔΟΣ : Biography, Drama, Romance
ΠΡΕΜΙΕΡΑ : 4 August 2017 (Ireland)
ΜΕΤΑΦΡΑΣΗ : N.M
IMDB : http://www.imdb.com/title/tt3721954/

Υπόθεση

Βασισμένο σε μια αληθινή ιστορία, αφηγείται ένα παράξενο ειδύλλιο ανάμεσα στην Μοντ Λιούις (Σάλι Χόκινς) μιας γυναίκας που δουλεύει σαν οικονόμος ενώ γίνεται μετέπειτα αγαπημένη μορφή στην κοινότητα από τις ικανότητές της στην ζωγραφική και του μοναχικού, Έβερετ (Ίθαν Χοκ).

Spoiler:

Format : AVI
Format/Info : Audio Video Interleave
File size : 1.53 GiB
Duration : 1 h 55 min
Overall bit rate : 1 892 kb/s
Writing application : VirtualDubMod 1.5.10.2 (build 2542/release)
Writing library : VirtualDubMod build 2542/release

Video
ID : 0
Format : MPEG-4 Visual
Format profile : Advanced [email protected]
Format settings, BVOP : 1
Format settings, QPel : No
Format settings, GMC : No warppoints
Format settings, Matrix : Default (H.263)
Muxing mode : Packed bitstream
Codec ID : XVID
Codec ID/Hint : XviD
Duration : 1 h 55 min
Bit rate : 1 436 kb/s
Width : 720 pixels
Height : 388 pixels
Display aspect ratio : 1.85:1
Frame rate : 24.000 FPS
Color space : YUV
Chroma subsampling : 4:2:0
Bit depth : 8 bits
Scan type : Progressive
Compression mode : Lossy
Bits/(Pixel*Frame) : 0.214
Stream size : 1.16 GiB (76%)
Writing library : XviD 64

Audio
ID : 1
Format : AC-3
Format/Info : Audio Coding 3
Format settings, Endianness : Big
Codec ID : 2000
Duration : 1 h 55 min
Bit rate mode : Constant
Bit rate : 448 kb/s
Channel(s) : 6 channels
Channel positions : Front: L C R, Side: L R, LFE
Sampling rate : 48.0 kHz
Frame rate : 31.250 FPS (1536 spf)
Bit depth : 16 bits
Compression mode : Lossy
Stream size : 371 MiB (24%)
Alignment : Split accross interleaves
Interleave, duration : 64 ms (1.54 video frames)
Interleave, preload duratio : 500 ms
Service kind : Complete Main


ΑΝ ΣΑΣ ΑΡΕΣΕΙ Η ΔΟΥΛΕΙΑ ΜΟΥ ΚΑΙ ΘΕΛΕΤΕ ΝΑ ΜΕ ΣΤΗΡΙΞΕΤΕ,
ΚΑΝΤΕ ΕΝΑ ΛΟΓΑΡΙΑΣΜΟ ΓΙΑ EASYBYTEZ & UPLOADED
ΚΑΙ ΚΑΤΕΒΑΣΤΕ ΣΑΝ PREMIUM ΑΠΟ 20 ΔΙΑΦΟΡΕΤΙΚΟΥΣ HOST.

EasyBytez Premium Accounts

Για Uploaded απο Εδώ. http://ul.to/ref/3276399


Links Easybytez & Uploaded

Spoiler:

https://paste2.org/WLgYf68w

https://pastebin.com/Yfi7CY3a

Αγαπητοί φίλοι πολλές φορές ίσως σε κάποια λίνκ σας βγάζει «Server error»
η προβληματικός πάροχος η σφάλμα plugin έχει λήξει.
Αυτό δεν σημαίνει απαραίτητα ότι τα λίνκ είναι νεκρά. Δοκιμάστε το εξής.
Πάρ΄τε τα λίνκ ή το μονό λίνκ και κατεβάστε το με Browser….Δεξί κλίκ στο λίνκ και άνοιγμα σε νέο παράθυρο…
Θα σας ανοίξει μία καρτελίτσα και εσείς θα πατήσετε αποθήκευση, όχι άνοιγμα…
Αυτόματά το λίνκ θα κατέβει και θα αποθηκευτεί στο φάκελο που εσείς έχετε επιλέξει.

Αφήστε μια απάντηση

Chat - Μόνο Εγγεγραμμένοι Χρήστες
You must be signed in to post a comment
Mr.Planet
(Παρασκευή, Νοέ 17. 2017 11:24 ΠΜ)
θερμη παρακληση:
οταν βλεπετε νεκρα η προβληματικα λινκς να το γραφεται στο chat για να αντικαταστησω αμεσα…
σας ευχαριστω!!
Mr.Planet
(Παρασκευή, Νοέ 17. 2017 11:22 ΠΜ)
Kαλημερα στην παρεα που ολο πιο πολυ μεγαλώνει.
Mr.Planet
(Σάββατο, Νοέ 11. 2017 07:28 ΜΜ)
To Chat προσφερεται για βοηθεια οχι για να γραφεται ευχαριστω…
george300
(Σάββατο, Νοέ 11. 2017 06:57 ΜΜ)
ευχαριστώ πολύ
billyalex
(Τρίτη, Νοέ 7. 2017 09:47 ΜΜ)
thanx

1 · 2