Kατηγορίες

Traffic at a Glance

Pageviews 108.406

Days in Range 30

Average Daily Pageviews 3.614

From Search Results 10.062

Unique IPs 8.902

Last 30 minutes 90

Today 1.081

Yesterday 3.799

Η ΤΕΛΙΚΗ ΑΠΟΠΛΗΡΩΜΗ (2013) DVDRIP AC3

 

Eιδος: Περιπέτεια
Παραγωγή: 2013
Διάρκεια: 118 λεπτά
Σκηνοθεσία: Αλέξανδρος Λεονταρίτης
Σενάριο: Αλέξανδρος Λεονταρίτης
Πρωταγωνιστούν: Γρηγόρης Τερζάκης, Γιάννης Μποσταντζογλου, Γιώργος Γιαννόπουλος, Ελένη Φιλίνη, Χρήστος Θεοφιλάτος, Μαρίνα Τσιγονάκη, Βαγγέλης Μουρίκης
IMDB : http://www.imdb.com/title/tt2330748/

Υπόθεση

Ένας πρώην μποξέρ, o Γρηγόρης, έχει εγκαταλείψει το όνειρό του εδώ και καιρό. Ακολουθεί πια στη ζωή του τους κανόνες του υποκόσμου, δουλεύοντας για τον Μάρκο. Μαζί με τον συνεργάτη του Χρήστο έχει αναλάβει τον δύσκολο ρόλο να συλλέγει χρωστούμενα από ανθρώπους που αδυνατούν να πληρώσουν το χρέος τους. Μέσα από μία περιπετειώδη ζωή που περιλαμβάνει απειλές, καταδιώξεις και ληστείες, ο Γρηγόρης θα γνωρίσει τη Νεφέλη, μια νεαρή ηθοποιό την οποία ερωτεύεται. Όμως, ένα καλά κρυμμένο μυστικό από το παρελθόν του Γρηγόρη θα τον κάνει αναθεωρήσει τη ζωή του και να συγκρουστεί με όλους και με όλα για να κάνει την τελική αποπληρωμή.

Spoiler:

Η ΤΕΛΙΚΗ ΑΠΟΠΛΗΡΩΜΗ 2013
Format : MPEG-4
Format profile : Base Media / Version 2
Codec ID : mp42
File size : 16.5 MiB
Duration : 1mn 15s
Overall bit rate : 1 840 Kbps
Encoded date : UTC 2015-09-30 17:41:26
Tagged date : UTC 2015-09-30 17:43:14
Writing application : HandBrake 0.9.9 2013052900

Video
ID : 1
Format : AVC
Format/Info : Advanced Video Codec
Format profile : [email protected]
Format settings, CABAC : Yes
Format settings, ReFrames : 4 frames
Codec ID : avc1
Codec ID/Info : Advanced Video Coding
Duration : 1mn 15s
Bit rate : 1 520 Kbps
Width : 720 pixels
Height : 304 pixels
Display aspect ratio : 2.35:1
Frame rate mode : Variable
Frame rate : 24.939 fps
Minimum frame rate : 13.889 fps
Maximum frame rate : 25.000 fps
Color space : YUV
Chroma subsampling : 4:2:0
Bit depth : 8 bits
Scan type : Progressive
Bits/(Pixel*Frame) : 0.278
Stream size : 13.6 MiB (82%)
Writing library : x264 core 130 r2273 b3065e6
Encoding settings : cabac=1 / ref=3 / deblock=1:0:0 / analyse=0x3:0x113 / me=hex / subme=7 / psy=1 / psy_rd=1.00:0.00 / mixed_ref=1 / me_range=16 / chroma_me=1 / trellis=1 / 8x8dct=1 / cqm=0 / deadzone=21,11 / fast_pskip=1 / chroma_qp_offset=-2 / threads=3 / lookahead_threads=1 / sliced_threads=0 / nr=0 / decimate=1 / interlaced=0 / bluray_compat=0 / constrained_intra=0 / bframes=3 / b_pyramid=2 / b_adapt=1 / b_bias=0 / direct=1 / weightb=1 / open_gop=0 / weightp=2 / keyint=250 / keyint_min=25 / scenecut=40 / intra_refresh=0 / rc_lookahead=40 / rc=abr / mbtree=1 / bitrate=1520 / ratetol=1.0 / qcomp=0.60 / qpmin=0 / qpmax=69 / qpstep=4 / vbv_maxrate=62500 / vbv_bufsize=78125 / nal_hrd=none / ip_ratio=1.40 / aq=1:1.00
Encoded date : UTC 2015-09-30 17:41:26
Tagged date : UTC 2015-09-30 17:43:14
Color range : Limited
Color primaries : BT.601 PAL
Transfer characteristics : BT.709
Matrix coefficients : BT.601

Audio
ID : 2
Format : AC-3
Format/Info : Audio Coding 3
Mode extension : CM (complete main)
Format settings, Endianness : Big
Codec ID : ac-3
Duration : 1mn 15s
Bit rate mode : Constant
Bit rate : 320 Kbps
Channel(s) : 2 channels
Channel positions : Front: L R
Sampling rate : 48.0 KHz
Bit depth : 16 bits
Compression mode : Lossy
Stream size : 2.86 MiB (17%)
Title : Surround
Language : English
Encoded date : UTC 2015-09-30 17:41:26
Tagged date : UTC 2015-09-30 17:43:13

Text
ID : 3
Format : mp4s
Codec ID : E0
Language : Greek
Encoded date : UTC 2015-09-30 17:41:26
Tagged date : UTC 2015-09-30 17:41:26

Menu
ID : 4
Codec ID : text
Duration : 1mn 15s
Encoded date : UTC 2015-09-30 17:41:26
Tagged date : UTC 2015-09-30 17:43:14
00:00:00.000 : Chapter 1


ΑΝ ΣΑΣ ΑΡΕΣΕΙ Η ΔΟΥΛΕΙΑ ΜΟΥ ΚΑΙ ΘΕΛΕΤΕ ΝΑ ΜΕ ΣΤΗΡΙΞΕΤΕ,
ΚΑΝΤΕ ΕΝΑ ΛΟΓΑΡΙΑΣΜΟ ΓΙΑ EASYBYTEZ & UPLOADED
ΚΑΙ ΚΑΤΕΒΑΣΤΕ ΣΑΝ PREMIUM ΑΠΟ 20 ΔΙΑΦΟΡΕΤΙΚΟΥΣ HOST.

EasyBytez Premium Accounts

Για Uploaded απο Εδώ. http://ul.to/ref/3276399


Links Easybytez & Uploaded

Spoiler:

https://paste2.org/yWhZZA6x

https://pastebin.com/Su4EjEiC

Αγαπητοί φίλοι πολλές φορές ίσως σε κάποια λίνκ σας βγάζει «Server error»
η προβληματικός πάροχος η σφάλμα plugin έχει λήξει.
Αυτό δεν σημαίνει απαραίτητα ότι τα λίνκ είναι νεκρά. Δοκιμάστε το εξής.
Πάρ΄τε τα λίνκ ή το μονό λίνκ και κατεβάστε το με Browser….Δεξί κλίκ στο λίνκ και άνοιγμα σε νέο παράθυρο…
Θα σας ανοίξει μία καρτελίτσα και εσείς θα πατήσετε αποθήκευση, όχι άνοιγμα…
Αυτόματά το λίνκ θα κατέβει και θα αποθηκευτεί στο φάκελο που εσείς έχετε επιλέξει.

Αφήστε μια απάντηση

Chat - Μόνο Εγγεγραμμένοι Χρήστες
You must be signed in to post a comment
Mr.Planet
(Παρασκευή, Νοέ 17. 2017 11:24 ΠΜ)
θερμη παρακληση:
οταν βλεπετε νεκρα η προβληματικα λινκς να το γραφεται στο chat για να αντικαταστησω αμεσα…
σας ευχαριστω!!
Mr.Planet
(Παρασκευή, Νοέ 17. 2017 11:22 ΠΜ)
Kαλημερα στην παρεα που ολο πιο πολυ μεγαλώνει.
Mr.Planet
(Σάββατο, Νοέ 11. 2017 07:28 ΜΜ)
To Chat προσφερεται για βοηθεια οχι για να γραφεται ευχαριστω…
george300
(Σάββατο, Νοέ 11. 2017 06:57 ΜΜ)
ευχαριστώ πολύ
billyalex
(Τρίτη, Νοέ 7. 2017 09:47 ΜΜ)
thanx

1 · 2