Kατηγορίες

Traffic at a Glance

Pageviews 113.467

Days in Range 30

Average Daily Pageviews 3.782

From Search Results 11.116

Unique IPs 8.705

Last 30 minutes 3

Today 355

Yesterday 3.700

THE EMOJI MOVIE (2017) REPACK PROPER BRRip XviD AC3-RARBG {ΕΝΣΩΜ.ΥΠΟΤ}

 

Είδος Ταινίας: Animation, Adventure, Comedy
Ελληνική Πρεμιέρα: 21 September 2017 (Greece)
Σκηνοθέτης: Tony Leondis
Σενάριο: Tony Leondis (screenplay by), Eric Siegel (screenplay by)
Ηθοποιοί: T.J. Miller, James Corden, Anna Faris
Mετάφραση: Άγνωστος
IMDB : http://www.imdb.com/title/tt4877122/

Υπόθεση

Βρισκόμαστε μέσα σε ένα smartphone. Κρυμμένη μέσα σε μηνύματα και εφαρμογές βρίσκεται η Textopolis, μια πόλη όπου ζουν όλα τα Emoji, ελπίζοντας να επιλεγούν από τον χρήστη της συσκευής. Το κάθε ένα από αυτά έχει μονάχα μία οπτική έκφανση, εκτός από τον Τζιν, ένα πλουσιοπάροχο emoji που γεννήθηκε δίχως φίλτρο και εμφανίζεται στον χρήστη μέσω διαφόρων εκφάνσεων. Αποφασισμένο να γίνει «νορμάλ» όπως τα υπόλοιπα emoji, ο Τζιν στρατολογεί τη βοήθεια του φιλαράκου του, Hi-5, και της διαβόητης Jailbreak, ειδήμον στο σπάσιμο κωδικών. Οι τρεις τους θα ξεκινήσουν ένα ψηφιακό ταξίδι μέσα από τις εφαρμογές του τηλεφώνου, για να βρουν τον Κώδικα που θα διορθώσει τον Τζιν.

Spoiler:

Format : AVI
Format/Info : Audio Video Interleave
File size : 1.23 GiB
Duration : 1 h 25 min
Overall bit rate : 2 055 kb/s
Writing application : VirtualDubMod 1.5.10.2 (build 2542/release)
Writing library : VirtualDubMod build 2542/release

Video
ID : 0
Format : MPEG-4 Visual
Format profile : Advanced [email protected]
Format settings, BVOP : 1
Format settings, QPel : No
Format settings, GMC : No warppoints
Format settings, Matrix : Default (H.263)
Muxing mode : Packed bitstream
Codec ID : XVID
Codec ID/Hint : XviD
Duration : 1 h 25 min
Bit rate : 1 599 kb/s
Width : 720 pixels
Height : 300 pixels
Display aspect ratio : 2.40:1
Frame rate : 23.976 (24000/1001) FPS
Color space : YUV
Chroma subsampling : 4:2:0
Bit depth : 8 bits
Scan type : Progressive
Compression mode : Lossy
Bits/(Pixel*Frame) : 0.309
Stream size : 981 MiB (78%)
Writing library : XviD 64

Audio
ID : 1
Format : AC-3
Format/Info : Audio Coding 3
Format settings, Endianness : Big
Codec ID : 2000
Duration : 1 h 25 min
Bit rate mode : Constant
Bit rate : 448 kb/s
Channel(s) : 6 channels
Channel positions : Front: L C R, Side: L R, LFE
Sampling rate : 48.0 kHz
Frame rate : 31.250 FPS (1536 SPF)
Bit depth : 16 bits
Compression mode : Lossy
Stream size : 275 MiB (22%)
Alignment : Split accross interleaves
Interleave, duration : 64 ms (1.53 video frames)
Interleave, preload duration : 500 ms
Service kind : Complete Main


ΑΝ ΣΑΣ ΑΡΕΣΕΙ Η ΔΟΥΛΕΙΑ ΜΟΥ ΚΑΙ ΘΕΛΕΤΕ ΝΑ ΜΕ ΣΤΗΡΙΞΕΤΕ,
ΚΑΝΤΕ ΕΝΑ ΛΟΓΑΡΙΑΣΜΟ ΓΙΑ EASYBYTEZ & UPLOADED
ΚΑΙ ΚΑΤΕΒΑΣΤΕ ΣΑΝ PREMIUM ΑΠΟ 20 ΔΙΑΦΟΡΕΤΙΚΟΥΣ HOST.

EasyBytez Premium Accounts

Για Uploaded απο Εδώ. http://ul.to/ref/3276399


Links Easybytez & Uploaded

Spoiler:

https://paste2.org/OBUvcWpF

https://pastebin.com/qp2tCP7h

Αγαπητοί φίλοι πολλές φορές ίσως σε κάποια λίνκ σας βγάζει «Server error»
η προβληματικός πάροχος η σφάλμα plugin έχει λήξει.
Αυτό δεν σημαίνει απαραίτητα ότι τα λίνκ είναι νεκρά. Δοκιμάστε το εξής.
Πάρ΄τε τα λίνκ ή το μονό λίνκ και κατεβάστε το με Browser….Δεξί κλίκ στο λίνκ και άνοιγμα σε νέο παράθυρο…
Θα σας ανοίξει μία καρτελίτσα και εσείς θα πατήσετε αποθήκευση, όχι άνοιγμα…
Αυτόματά το λίνκ θα κατέβει και θα αποθηκευτεί στο φάκελο που εσείς έχετε επιλέξει.

Αφήστε μια απάντηση

Chat - Μόνο Εγγεγραμμένοι Χρήστες
You must be signed in to post a comment
Mr.Planet
(Τρίτη, Ιαν 16. 2018 11:51 ΜΜ)
καλως ηρθες στην παρεα μας panosdoum
panosdoum
(Τρίτη, Ιαν 16. 2018 10:15 ΜΜ)
οκ το βρηκα
panosdoum
(Τρίτη, Ιαν 16. 2018 10:07 ΜΜ)
καλησπέρα είμαι καινούργιος στο site δεν γνωρίζω πως κατεβάζετε
stamilia
(Τρίτη, Ιαν 16. 2018 12:25 ΠΜ)
σε ευχαριστω πολυ
stamilia
(Δευτέρα, Ιαν 15. 2018 09:37 ΜΜ)
Indiana Jones and the Kingdom of the Crystal Skull μήπως μπορουμε να βρούμε κάτι γιαυτό?
Mr.Planet: σε λιγο θα ανεβει.

1 · 2 · 3 · 4 · 5