Kατηγορίες

Traffic at a Glance

Pageviews 106.201

Days in Range 30

Average Daily Pageviews 3.540

From Search Results 9.753

Unique IPs 8.653

Last 30 minutes 7

Today 499

Yesterday 4.310

THE HITMAN’S BODYGUARD (2017) BRRip.XviD.AC3-RARBG {ΕΝΣΩΜ.ΥΠΟΤ}

 

 

Ελληνικός Τίτλος: Ο Σωματοφύλακας του Εκτελεστή
Αυθεντικός Τίτλος: The Hitman’s Bodyguard
Είδος Ταινίας: Action, Comedy
Πρεμιέρα στην Ελλάδα: Πεμ 17 Αυγ 2017
Σκηνοθέτης: Patrick Hughes
Σενάριο: Tom O’Connor
Ηθοποιοί: Ryan Reynolds, Samuel L. Jackson, Gary Oldman
Μετάφραση: Angeliki, Trelokomia, nikol80, Silkite, KoniPat
Διάρκεια: 118 Λεπτά
IMDB : http://www.imdb.com/title/tt1959563/

Υπόθεση

Ο κορυφαίος σωματοφύλακας στον κόσμο (Ράιαν Ρέινολντς), καλείται να προστατεύσει τη ζωή του θανάσιμου εχθρού του, ενός από τους πιο διαβόητους εκτελεστές του πλανήτη (Σάμιουελ Λ. Τζάκσον). Ο ασταμάτητος σωματοφύλακας και ο αδίστακτος δολοφόνος, βρίσκονται για χρόνια αντιμέτωποι, αλλά τώρα θα βρεθούν μαζί για ένα απίστευτα τρελό 24ωρο. Κατά τη διάρκεια της άγριας περιπέτειας που θα τους μεταφέρει από την Αγγλία έως τη Χάγη, θα αντιμετωπίσουν καταδιώξεις με αυτοκίνητα, αλλόκοτες περιπέτειες με το πλοίο, αλλά και έναν ανελέητο δικτάτορα της Ανατολικής Ευρώπης, που διψάει για αίμα.

Spoiler:

Format : AVI
Format/Info : Audio Video Interleave
File size : 1.69 GiB
Duration : 1 h 58 min
Overall bit rate : 2 051 kb/s
Writing application : VirtualDubMod 1.5.10.2 (build 2542/release)
Writing library : VirtualDubMod build 2542/release

Video
ID : 0
Format : MPEG-4 Visual
Format profile : Advanced [email protected]
Format settings, BVOP : 1
Format settings, QPel : No
Format settings, GMC : No warppoints
Format settings, Matrix : Default (H.263)
Muxing mode : Packed bitstream
Codec ID : XVID
Codec ID/Hint : XviD
Duration : 1 h 58 min
Bit rate : 1 596 kb/s
Width : 720 pixels
Height : 302 pixels
Display aspect ratio : 2.40:1
Frame rate : 23.976 (24000/1001) FPS
Color space : YUV
Chroma subsampling : 4:2:0
Bit depth : 8 bits
Scan type : Progressive
Compression mode : Lossy
Bits/(Pixel*Frame) : 0.306
Stream size : 1.32 GiB (78%)
Writing library : XviD 64

Audio
ID : 1
Format : AC-3
Format/Info : Audio Coding 3
Format settings, Endianness : Big
Codec ID : 2000
Duration : 1 h 58 min
Bit rate mode : Constant
Bit rate : 448 kb/s
Channel(s) : 6 channels
Channel positions : Front: L C R, Side: L R, LFE
Sampling rate : 48.0 kHz
Frame rate : 31.250 FPS (1536 SPF)
Bit depth : 16 bits
Compression mode : Lossy
Stream size : 379 MiB (22%)
Alignment : Split accross interleaves
Interleave, duration : 64 ms (1.53 video frames)
Interleave, preload duration : 500 ms
Service kind : Complete Main


ΑΝ ΣΑΣ ΑΡΕΣΕΙ Η ΔΟΥΛΕΙΑ ΜΟΥ ΚΑΙ ΘΕΛΕΤΕ ΝΑ ΜΕ ΣΤΗΡΙΞΕΤΕ,
ΚΑΝΤΕ ΕΝΑ ΛΟΓΑΡΙΑΣΜΟ ΓΙΑ EASYBYTEZ & UPLOADED
ΚΑΙ ΚΑΤΕΒΑΣΤΕ ΣΑΝ PREMIUM ΑΠΟ 20 ΔΙΑΦΟΡΕΤΙΚΟΥΣ HOST.

EasyBytez Premium Accounts

Για Uploaded απο Εδώ. http://ul.to/ref/3276399


Links Easybytez & Uploaded

Spoiler:

https://paste2.org/DpMJXbCa

https://pastebin.com/qfW75p8A

Αγαπητοί φίλοι πολλές φορές ίσως σε κάποια λίνκ σας βγάζει «Server error»
η προβληματικός πάροχος η σφάλμα plugin έχει λήξει.
Αυτό δεν σημαίνει απαραίτητα ότι τα λίνκ είναι νεκρά. Δοκιμάστε το εξής.
Πάρ΄τε τα λίνκ ή το μονό λίνκ και κατεβάστε το με Browser….Δεξί κλίκ στο λίνκ και άνοιγμα σε νέο παράθυρο…
Θα σας ανοίξει μία καρτελίτσα και εσείς θα πατήσετε αποθήκευση, όχι άνοιγμα…
Αυτόματά το λίνκ θα κατέβει και θα αποθηκευτεί στο φάκελο που εσείς έχετε επιλέξει.

One Response to THE HITMAN’S BODYGUARD (2017) BRRip.XviD.AC3-RARBG {ΕΝΣΩΜ.ΥΠΟΤ}

Αφήστε μια απάντηση

Chat - Μόνο Εγγεγραμμένοι Χρήστες
You must be signed in to post a comment
DrMakis
(Κυριακή, Δεκ 17. 2017 10:47 ΜΜ)
thanks!
DrMakis
(Κυριακή, Δεκ 17. 2017 12:57 ΜΜ)
Kαλή εβδομάδα Mr.Planet (και σε όλη την παρέα)! από το «How to get away with murder» έχουμε κανένα επισόδειο;
Kαλησπερα DrMakis. το επομενο επεισοδιο θα προβληθη 18 Jan. 2018..
stamilia
(Τετάρτη, Δεκ 6. 2017 09:23 ΜΜ)
http://www.web-planet.co/2017/06/16/the-originals-2013-season-1-ensomipot/
o tetartos kiklos ton original teleionei sto episodio 11?
perimeno neo kyklo h neo episodio?
efharisto poli h doulia sas einai apistefti
stamilia: Aνεβηκαν τα δυο τελευταια επεισοδια.
stamilia
(Τετάρτη, Δεκ 6. 2017 09:22 ΜΜ)
http://www.web-planet.co/2017/02/13/pressure-2015-brrip-xvid-ac3-evo-ensom-ipot/
kalispera!!!!
leei pos den yparhoun ta links!!!
efharisto
LARRYAEK
(Σάββατο, Νοέ 25. 2017 11:20 ΠΜ)
καλημερα σε ολους και καλο σαββ/ριακο.καλημερα Mr.Planet …….
Πολυ καλησπερα LARRYAEK!!!

1