Kατηγορίες

Traffic at a Glance

Pageviews 106.293

Days in Range 30

Average Daily Pageviews 3.543

From Search Results 9.760

Unique IPs 8.661

Last 30 minutes 47

Today 591

Yesterday 4.310

NOEL (2004) DVDRip {ΕΝΣΩΜ.ΥΠΟΤ}

 

Είδος: Drama
Πρεμιέρα: 31 December 2004 (Greece)
Σκηνοθεσία: Chazz Palminteri
Σενάριο: David Hubbard
Ηθοποιοί: Susan Sarandon,Paul Walker,Penιlope Cruz,Alan Arkin,Marcus Thomas,
Απόδοση Διαλόγων: Aγνωστος (Big Thx)
iMDB: http://www.imdb.com/title/tt0383534/

Υπόθεση

Νέα Υόρκη, λίγες ημέρες πριν τα Χριστούγεννα, 5 άνθρωποι διαφορετικής ηλικίας αναζητούν ένα ‘’θαύμα’’ που θα τους βγάλει απο τα προσωπικά τους αδιέξοδα..
Κεντρικό πρόσωπο της ιστορίας, μια εκδότρια, μόνη στη ζωή, της οποίας μοναδική ασχολία, είναι να φροντίζει την άρρωστη μητέρα της που πάσχει από Αλτσχάιμερ..
Ένα νεαρό ζευγάρι, λίγο πριν το γάμο, περνάει κρίση, λόγω της αρρωστημένης ζήλειας του αγοριού. Η Πενέλοπε Κρουζ, στο ρόλο της κοπέλας, που?δικαίως ζηλεύει ο νεαρός άντρας?
Ένας απελπισμένος νεαρός, μόνος στη ζωή, προσπαθεί να ξαναβρεί την ευτυχία των παιδικών του χρόνων, αναζητώντας όμως λάθος δρόμους..
Και τέλος, ένας σερβιτόρος, μεγάλης ηλικίας, που ψάχνει τη μετανσάρκωση της γυναίκας του..

Spoiler:

Format : AVI
Format/Info : Audio Video Interleave
File size : 357 MiB
Duration : 1 h 32 min
Overall bit rate mode : Variable
Overall bit rate : 539 kb/s
Writing application : VirtualDubMod 1.5.10.1 (build 2439/release)
Writing library : VirtualDub build 30586/release

Video
ID : 0
Format : MPEG-4 Visual
Format profile : Advanced [email protected]
Format settings, BVOP : 2
Format settings, QPel : No
Format settings, GMC : No warppoints
Format settings, Matrix : Default (H.263)
Muxing mode : Packed bitstream
Codec ID : XVID
Codec ID/Hint : XviD
Duration : 1 h 32 min
Bit rate : 396 kb/s
Width : 640 pixels
Height : 272 pixels
Display aspect ratio : 2.35:1
Frame rate : 25.000 FPS
Color space : YUV
Chroma subsampling : 4:2:0
Bit depth : 8 bits
Scan type : Progressive
Compression mode : Lossy
Bits/(Pixel*Frame) : 0.091
Stream size : 262 MiB (73%)
Writing library : XviD 64

Audio
ID : 1
Format : MPEG Audio
Format version : Version 1
Format profile : Layer 3
Mode : Joint stereo
Mode extension : MS Stereo
Codec ID : 55
Codec ID/Hint : MP3
Duration : 1 h 32 min
Bit rate mode : Variable
Bit rate : 128 kb/s
Channel(s) : 2 channels
Sampling rate : 48.0 kHz
Compression mode : Lossy
Stream size : 86.3 MiB (24%)
Alignment : Aligned on interleaves
Interleave, duration : 24 ms (0.60 video frame)
Interleave, preload duration : 141 ms
Writing library : LAME3.90.
Encoding settings : -m j -V 4 -q 2 -lowpass 17.6 –abr 128


ΑΝ ΣΑΣ ΑΡΕΣΕΙ Η ΔΟΥΛΕΙΑ ΜΟΥ ΚΑΙ ΘΕΛΕΤΕ ΝΑ ΜΕ ΣΤΗΡΙΞΕΤΕ,
ΚΑΝΤΕ ΕΝΑ ΛΟΓΑΡΙΑΣΜΟ ΓΙΑ EASYBYTEZ & UPLOADED
ΚΑΙ ΚΑΤΕΒΑΣΤΕ ΣΑΝ PREMIUM ΑΠΟ 20 ΔΙΑΦΟΡΕΤΙΚΟΥΣ HOST.

EasyBytez Premium Accounts

Για Uploaded απο Εδώ. http://ul.to/ref/3276399


Links Easybytez & Uploaded

Spoiler:

https://paste2.org/EtVUmAmI

https://pastebin.com/xwbeTDdN

Αγαπητοί φίλοι πολλές φορές ίσως σε κάποια λίνκ σας βγάζει «Server error»
η προβληματικός πάροχος η σφάλμα plugin έχει λήξει.
Αυτό δεν σημαίνει απαραίτητα ότι τα λίνκ είναι νεκρά. Δοκιμάστε το εξής.
Πάρ΄τε τα λίνκ ή το μονό λίνκ και κατεβάστε το με Browser….Δεξί κλίκ στο λίνκ και άνοιγμα σε νέο παράθυρο…
Θα σας ανοίξει μία καρτελίτσα και εσείς θα πατήσετε αποθήκευση, όχι άνοιγμα…
Αυτόματά το λίνκ θα κατέβει και θα αποθηκευτεί στο φάκελο που εσείς έχετε επιλέξει.

One Response to NOEL (2004) DVDRip {ΕΝΣΩΜ.ΥΠΟΤ}

Αφήστε μια απάντηση

Chat - Μόνο Εγγεγραμμένοι Χρήστες
You must be signed in to post a comment
DrMakis
(Κυριακή, Δεκ 17. 2017 10:47 ΜΜ)
thanks!
DrMakis
(Κυριακή, Δεκ 17. 2017 12:57 ΜΜ)
Kαλή εβδομάδα Mr.Planet (και σε όλη την παρέα)! από το «How to get away with murder» έχουμε κανένα επισόδειο;
Kαλησπερα DrMakis. το επομενο επεισοδιο θα προβληθη 18 Jan. 2018..
stamilia
(Τετάρτη, Δεκ 6. 2017 09:23 ΜΜ)
http://www.web-planet.co/2017/06/16/the-originals-2013-season-1-ensomipot/
o tetartos kiklos ton original teleionei sto episodio 11?
perimeno neo kyklo h neo episodio?
efharisto poli h doulia sas einai apistefti
stamilia: Aνεβηκαν τα δυο τελευταια επεισοδια.
stamilia
(Τετάρτη, Δεκ 6. 2017 09:22 ΜΜ)
http://www.web-planet.co/2017/02/13/pressure-2015-brrip-xvid-ac3-evo-ensom-ipot/
kalispera!!!!
leei pos den yparhoun ta links!!!
efharisto
LARRYAEK
(Σάββατο, Νοέ 25. 2017 11:20 ΠΜ)
καλημερα σε ολους και καλο σαββ/ριακο.καλημερα Mr.Planet …….
Πολυ καλησπερα LARRYAEK!!!

1