Kατηγορίες

Traffic at a Glance

Pageviews 106.166

Days in Range 30

Average Daily Pageviews 3.539

From Search Results 9.753

Unique IPs 8.651

Last 30 minutes 4

Today 464

Yesterday 4.310

ΛΥΣΣΑ ΚΑΚΙΑ (2015) TVRIP

 

Είδος Ταινίας: Κωμωδία
Σκηνοθεσία: Νίκος Ζερβός
Σενάριο: Ζωή Ζέρβα
Ηθοποιοί: Ζωή Ζέρβα, Γιώργος Καραμίχος, Τάκης Χρυσικάκος, Βίκυ Κουλιανού, Στέλλα Γιαμπουρά, Τζώνης Θεοδωρίδης, Γιάννης Ζουγανέλης, Κώστας Φραγκολιάς
Διάρκεια: 94′ Λεπτά
Ποιότητα Ταινίας: TVRip

Υπόθεση

Η καθημερινότητα σημερινών νέων που σπουδάζουν σε μια Δραματική Σχολή. Ξανθιές με εξάψεις και όνειρα, καθηγητές με λεξοτανίλ στη τσέπη, μπάρμαν με συνείδηση, και όλα αυτά εν μέσω οντισιόν, πρόβες, χορευτικά (κάθε λογής), σε μια τυχαία σχολή για επίδοξους movie-stars.

Spoiler:

Format : MPEG-4
Format profile : Base Media / Version 2
Codec ID : mp42 (mp42/isom/avc1)
File size : 1.14 GiB
Duration : 1 h 33 min
Overall bit rate mode : Variable
Overall bit rate : 1 737 kb/s
Movie name : SONY_DVD_RECORDER_VOLUME.Title1
Album : SONY_DVD_RECORDER_VOLUME
Encoded date : UTC 2017-05-22 11:20:39
Tagged date : UTC 2017-05-22 11:52:47
Writing application : DVDFab 9.2.1.9
covr : Unknown kind of value!

Video
ID : 1
Format : AVC
Format/Info : Advanced Video Codec
Format profile : [email protected]
Format settings, CABAC : Yes
Format settings, RefFrames : 1 frame
Codec ID : avc1
Codec ID/Info : Advanced Video Coding
Duration : 1 h 33 min
Bit rate : 1 592 kb/s
Width : 720 pixels
Height : 396 pixels
Display aspect ratio : 16:9
Frame rate mode : Constant
Frame rate : 25.000 FPS
Color space : YUV
Chroma subsampling : 4:2:0
Bit depth : 8 bits
Scan type : Progressive
Bits/(Pixel*Frame) : 0.223
Stream size : 1.05 GiB (92%)
Writing library : x264 core 142
Encoding settings : cabac=1 / ref=1 / deblock=1:0:0 / analyse=0x1:0x111 / me=umh / subme=6 / psy=0 / mixed_ref=0 / me_range=12 / chroma_me=1 / trellis=0 / 8x8dct=0 / cqm=0 / deadzone=21,11 / fast_pskip=1 / chroma_qp_offset=0 / threads=4 / lookahead_threads=1 / sliced_threads=0 / nr=0 / decimate=1 / interlaced=0 / bluray_compat=0 / constrained_intra=0 / bframes=0 / weightp=0 / keyint=24 / keyint_min=13 / scenecut=40 / intra_refresh=0 / rc=abr / mbtree=0 / bitrate=1592 / ratetol=1.0 / qcomp=0.60 / qpmin=0 / qpmax=69 / qpstep=4 / ip_ratio=1.40 / aq=1:1.00
Encoded date : UTC 2017-05-22 11:20:39
Tagged date : UTC 2017-05-22 11:52:47
Color range : Limited
Color primaries : BT.601 NTSC
Transfer characteristics : BT.709
Matrix coefficients : BT.601
Menus : 3

Audio
ID : 2
Format : AAC
Format/Info : Advanced Audio Codec
Format profile : LC
Codec ID : 40
Duration : 1 h 33 min
Bit rate mode : Variable
Bit rate : 128 kb/s
Maximum bit rate : 130 kb/s
Channel(s) : 2 channels
Channel positions : Front: L R
Sampling rate : 48.0 kHz
Frame rate : 46.875 FPS (1024 SPF)
Compression mode : Lossy
Stream size : 86.1 MiB (7%)
Title : aac 2.0
Default : Yes
Alternate group : 1
Encoded date : UTC 2017-05-22 11:20:39
Tagged date : UTC 2017-05-22 11:52:47

Menu
ID : 3
Codec ID : text
Duration : 1 h 33 min
Encoded date : UTC 2017-05-22 11:20:39
Tagged date : UTC 2017-05-22 11:52:47
Menu For : 1
Bit rate mode : VBR


ΑΝ ΣΑΣ ΑΡΕΣΕΙ Η ΔΟΥΛΕΙΑ ΜΟΥ ΚΑΙ ΘΕΛΕΤΕ ΝΑ ΜΕ ΣΤΗΡΙΞΕΤΕ,
ΚΑΝΤΕ ΕΝΑ ΛΟΓΑΡΙΑΣΜΟ ΓΙΑ EASYBYTEZ & UPLOADED
ΚΑΙ ΚΑΤΕΒΑΣΤΕ ΣΑΝ PREMIUM ΑΠΟ 20 ΔΙΑΦΟΡΕΤΙΚΟΥΣ HOST.

EasyBytez Premium Accounts

Για Uploaded απο Εδώ. http://ul.to/ref/3276399


Links Easybytez & Uploaded

Spoiler:

https://paste2.org/apPp6cLy

Αγαπητοί φίλοι πολλές φορές ίσως σε κάποια λίνκ σας βγάζει «Server error»
η προβληματικός πάροχος η σφάλμα plugin έχει λήξει.
Αυτό δεν σημαίνει απαραίτητα ότι τα λίνκ είναι νεκρά. Δοκιμάστε το εξής.
Πάρ΄τε τα λίνκ ή το μονό λίνκ και κατεβάστε το με Browser….Δεξί κλίκ στο λίνκ και άνοιγμα σε νέο παράθυρο…
Θα σας ανοίξει μία καρτελίτσα και εσείς θα πατήσετε αποθήκευση, όχι άνοιγμα…
Αυτόματά το λίνκ θα κατέβει και θα αποθηκευτεί στο φάκελο που εσείς έχετε επιλέξει.

Αφήστε μια απάντηση

Chat - Μόνο Εγγεγραμμένοι Χρήστες
You must be signed in to post a comment
DrMakis
(Κυριακή, Δεκ 17. 2017 10:47 ΜΜ)
thanks!
DrMakis
(Κυριακή, Δεκ 17. 2017 12:57 ΜΜ)
Kαλή εβδομάδα Mr.Planet (και σε όλη την παρέα)! από το «How to get away with murder» έχουμε κανένα επισόδειο;
Kαλησπερα DrMakis. το επομενο επεισοδιο θα προβληθη 18 Jan. 2018..
stamilia
(Τετάρτη, Δεκ 6. 2017 09:23 ΜΜ)
http://www.web-planet.co/2017/06/16/the-originals-2013-season-1-ensomipot/
o tetartos kiklos ton original teleionei sto episodio 11?
perimeno neo kyklo h neo episodio?
efharisto poli h doulia sas einai apistefti
stamilia: Aνεβηκαν τα δυο τελευταια επεισοδια.
stamilia
(Τετάρτη, Δεκ 6. 2017 09:22 ΜΜ)
http://www.web-planet.co/2017/02/13/pressure-2015-brrip-xvid-ac3-evo-ensom-ipot/
kalispera!!!!
leei pos den yparhoun ta links!!!
efharisto
LARRYAEK
(Σάββατο, Νοέ 25. 2017 11:20 ΠΜ)
καλημερα σε ολους και καλο σαββ/ριακο.καλημερα Mr.Planet …….
Πολυ καλησπερα LARRYAEK!!!

1