Kατηγορίες

Traffic at a Glance

Pageviews 106.292

Days in Range 30

Average Daily Pageviews 3.543

From Search Results 9.760

Unique IPs 8.661

Last 30 minutes 46

Today 590

Yesterday 4.310

SPANISH AFFAIR 2 / EΡΩΤΑΣ ΑΛA ΚΑΤΑΛΑΝΙΚA (2015) DVDRip XviD AC3-DROOPY {ΕΝΣΩΜ.ΥΠΟΤ}

 

Είδος Ταινίας: Κωμωδία, Ρομαντική
Ελληνική Πρεμιέρα: 7 Ιουλίου 2016
Σκηνοθέτης: Emilio Mart?nez L?zaro
Σενάριο: Borja Cobeaga, Diego San Jos?
Ηθοποιοί: Dani Rovira, Clara Lago, Karra Elejalde
Mετάφραση: KastriSubs
iMDB: http://www.imdb.com/title/tt3626742/

Υπόθεση

Ο τοπικισμός του Κόλντο πιάνει κόκκινα, όταν αντιλαμβάνεται ότι η κόρη του θα παντρευτεί έναν ξένο. Ακόμα χειρότερα, έναν Καταλανό. Έναν από αυτούς τους ανθρώπους «που θεωρούν τους εαυτούς τους λιγότερο Ισπανούς κι από τους Βάσκους», όπως λέει αγανακτισμένος, έναν τύπο χίπστερ με μούσι και μοδάτα γυαλιά που τρώει ντιζαϊνάτα φαγητά. Ο Κόλντο μαζεύει όλο του το κουράγιο και περνάει για πρώτη φορά τα βασκικά σύνορα με σκοπό να φτάσει μέχρι τον ισπανικό Νότο για να βρει τον Ράφα, τον πρώην φίλο της Αμάϊα. Προκειμένου όμως να τον πείσει να διεκδικήσει και πάλι την καρδιά της κόρης του, ο Κόλντο θα χρειαστεί μεγαλοβδομαδιάτικα να τρυπώσει σε μια παραδοσιακή λιτανεία που περιφέρει το άγαλμα της Παρθένου σε όλη τη Σεβίλλη για να τον κάνει να δεχτεί το παράτολμο σχέδιό του. Οι δύο άντρες ξεκινούν για τη Χερόνα, όπου ο Ράφα αυτή τη φορά θα προσποιηθεί και πάλι πως είναι ντόπιος, αυτή τη φορά βέρος Καταλανός. Και τι δεν θα κάνει ο Ράφα για προκειμένου να ξανακερδίσει την Αμάϊα, γιατί στην πραγματικότητα εξακολουθεί να την αγαπάει όπως την πρώτη μέρα.

Spoiler:

Format : AVI
Format/Info : Audio Video Interleave
File size : 1.29 GiB
Duration : 1 h 48 min
Overall bit rate : 1 705 kb/s
Writing application : VirtualDubMod 1.5.10.2 (build 2542/release)
Writing library : VirtualDubMod build 2542/release

Video
ID : 0
Format : MPEG-4 Visual
Format profile : Advanced [email protected]
Format settings, BVOP : 1
Format settings, QPel : No
Format settings, GMC : No warppoints
Format settings, Matrix : Default (H.263)
Muxing mode : Packed bitstream
Codec ID : XVID
Codec ID/Hint : XviD
Duration : 1 h 48 min
Bit rate : 1 249 kb/s
Width : 720 pixels
Height : 304 pixels
Display aspect ratio : 2.35:1
Frame rate : 23.976 (24000/1001) FPS
Color space : YUV
Chroma subsampling : 4:2:0
Bit depth : 8 bits
Scan type : Progressive
Compression mode : Lossy
Bits/(Pixel*Frame) : 0.238
Stream size : 969 MiB (73%)
Writing library : XviD 64

Audio
ID : 1
Format : AC-3
Format/Info : Audio Coding 3
Format settings, Endianness : Big
Codec ID : 2000
Duration : 1 h 48 min
Bit rate mode : Constant
Bit rate : 448 kb/s
Channel(s) : 6 channels
Channel positions : Front: L C R, Side: L R, LFE
Sampling rate : 48.0 kHz
Frame rate : 31.250 FPS (1536 SPF)
Bit depth : 16 bits
Compression mode : Lossy
Stream size : 348 MiB (26%)
Alignment : Split accross interleaves
Interleave, duration : 64 ms (1.53 video frames)
Interleave, preload duration : 500 ms
Service kind : Complete Main


ΑΝ ΣΑΣ ΑΡΕΣΕΙ Η ΔΟΥΛΕΙΑ ΜΟΥ ΚΑΙ ΘΕΛΕΤΕ ΝΑ ΜΕ ΣΤΗΡΙΞΕΤΕ,
ΚΑΝΤΕ ΕΝΑ ΛΟΓΑΡΙΑΣΜΟ ΓΙΑ EASYBYTEZ & UPLOADED
ΚΑΙ ΚΑΤΕΒΑΣΤΕ ΣΑΝ PREMIUM ΑΠΟ 20 ΔΙΑΦΟΡΕΤΙΚΟΥΣ HOST.

EasyBytez Premium Accounts

Για Uploaded απο Εδώ. http://ul.to/ref/3276399


Links Easybytez & Uploaded

Spoiler:

https://paste2.org/DIphvtk1

https://pastebin.com/71HF9PhL

Αγαπητοί φίλοι πολλές φορές ίσως σε κάποια λίνκ σας βγάζει «Server error»
η προβληματικός πάροχος η σφάλμα plugin έχει λήξει.
Αυτό δεν σημαίνει απαραίτητα ότι τα λίνκ είναι νεκρά. Δοκιμάστε το εξής.
Πάρ΄τε τα λίνκ ή το μονό λίνκ και κατεβάστε το με Browser….Δεξί κλίκ στο λίνκ και άνοιγμα σε νέο παράθυρο…
Θα σας ανοίξει μία καρτελίτσα και εσείς θα πατήσετε αποθήκευση, όχι άνοιγμα…
Αυτόματά το λίνκ θα κατέβει και θα αποθηκευτεί στο φάκελο που εσείς έχετε επιλέξει.

Αφήστε μια απάντηση

Chat - Μόνο Εγγεγραμμένοι Χρήστες
You must be signed in to post a comment
DrMakis
(Κυριακή, Δεκ 17. 2017 10:47 ΜΜ)
thanks!
DrMakis
(Κυριακή, Δεκ 17. 2017 12:57 ΜΜ)
Kαλή εβδομάδα Mr.Planet (και σε όλη την παρέα)! από το «How to get away with murder» έχουμε κανένα επισόδειο;
Kαλησπερα DrMakis. το επομενο επεισοδιο θα προβληθη 18 Jan. 2018..
stamilia
(Τετάρτη, Δεκ 6. 2017 09:23 ΜΜ)
http://www.web-planet.co/2017/06/16/the-originals-2013-season-1-ensomipot/
o tetartos kiklos ton original teleionei sto episodio 11?
perimeno neo kyklo h neo episodio?
efharisto poli h doulia sas einai apistefti
stamilia: Aνεβηκαν τα δυο τελευταια επεισοδια.
stamilia
(Τετάρτη, Δεκ 6. 2017 09:22 ΜΜ)
http://www.web-planet.co/2017/02/13/pressure-2015-brrip-xvid-ac3-evo-ensom-ipot/
kalispera!!!!
leei pos den yparhoun ta links!!!
efharisto
LARRYAEK
(Σάββατο, Νοέ 25. 2017 11:20 ΠΜ)
καλημερα σε ολους και καλο σαββ/ριακο.καλημερα Mr.Planet …….
Πολυ καλησπερα LARRYAEK!!!

1