Kατηγορίες

Traffic at a Glance

Pageviews 106.282

Days in Range 30

Average Daily Pageviews 3.543

From Search Results 9.758

Unique IPs 8.661

Last 30 minutes 38

Today 580

Yesterday 4.310

THE DROP (2014) 720p BRRip XVID AC3-RARBG {ENΣΩΜ.ΥΠΟΤ}

 

Eίδος ταινίας: Crime | Drama
Πρεμιέρα : 6 November 2014 (Greece)
Σκηνοθεσία: Michael R. Roskam
Σενάριο: Dennis Lehane, Dennis Lehane
Ηθοποιοί: Tom Hardy, Noomi Rapace, James Gandolfini, Matthias Schoenaerts
Aπόδοση Διαλόγων: *Μania – Artemis*
IMDB: http://www.imdb.com/title/tt1600196/

ΥΠΟΘΕΣΗ

Ο μπάρμαν από το Μπρούκλιν Μπομπ Σαγκινόφκι εργάζεται σε στέκι κακοποιών, υπό τη διεύθυνση του ξάδελφου του, Μαρβ, στο οποίο το παράνομο χρήμα δίνει και παίρνει. Όταν σώζει από σίγουρο θάνατο ένα κουταβάκι πιτ-μπουλ και γνωρίζει τη Νάντια, μια μυστήρια κοπέλα με ερωτηματικά επί του ιστορικού της, η ζωή του μοιάζει να παίρνει θετική τροπή. Όμως, είναι ήδη μπλεγμένος σε μια ληστεία που πήγε στραβά και βρίσκεται να σκάβει το σκοτεινό παρελθόν της γειτονιάς του.

Spoiler:

Format : AVI
Format/Info : Audio Video Interleave
Format profile : OpenDML
File size : 3.09 GiB
Duration : 1 h 46 min
Overall bit rate : 4 140 kb/s
Writing library : VirtualDub build 35491/release

Video
ID : 0
Format : MPEG-4 Visual
Format settings, BVOP : No
Format settings, QPel : No
Format settings, GMC : No warppoints
Format settings, Matrix : Default (H.263)
Codec ID : DX50
Codec ID/Hint : DivX 5
Duration : 1 h 46 min
Bit rate : 3 490 kb/s
Nominal bit rate : 9 708 kb/s
Width : 1 280 pixels
Height : 536 pixels
Display aspect ratio : 2.40:1
Frame rate : 23.976 (24000/1001) FPS
Color space : YUV
Chroma subsampling : 4:2:0
Bit depth : 8 bits
Scan type : Progressive
Compression mode : Lossy
Bits/(Pixel*Frame) : 0.212
Stream size : 2.60 GiB (84%)
Writing library : DivX 6.8.5 (UTC 2009-08-20)

Audio
ID : 1
Format : AC-3
Format/Info : Audio Coding 3
Format settings, Endianness : Big
Codec ID : 2000
Duration : 1 h 46 min
Bit rate mode : Constant
Bit rate : 640 kb/s
Channel(s) : 6 channels
Channel positions : Front: L C R, Side: L R, LFE
Sampling rate : 48.0 kHz
Frame rate : 31.250 FPS (1536 SPF)
Bit depth : 16 bits
Compression mode : Lossy
Stream size : 489 MiB (15%)
Alignment : Aligned on interleaves
Interleave, duration : 42 ms (1.00 video frame)
Interleave, preload duration : 512 ms
Service kind : Complete Main


ΑΝ ΣΑΣ ΑΡΕΣΕΙ Η ΔΟΥΛΕΙΑ ΜΟΥ ΚΑΙ ΘΕΛΕΤΕ ΝΑ ΜΕ ΣΤΗΡΙΞΕΤΕ,
ΚΑΝΤΕ ΕΝΑ ΛΟΓΑΡΙΑΣΜΟ ΓΙΑ EASYBYTEZ & UPLOADED
ΚΑΙ ΚΑΤΕΒΑΣΤΕ ΣΑΝ PREMIUM ΑΠΟ 20 ΔΙΑΦΟΡΕΤΙΚΟΥΣ HOST.

EasyBytez Premium Accounts

Για Uploaded απο Εδώ. http://ul.to/ref/3276399


Links Easybytez & Uploaded

Spoiler:

https://paste2.org/c0sOBDz4

https://pastebin.com/2azyBwQ6

Αγαπητοί φίλοι πολλές φορές ίσως σε κάποια λίνκ σας βγάζει «Server error»
η προβληματικός πάροχος η σφάλμα plugin έχει λήξει.
Αυτό δεν σημαίνει απαραίτητα ότι τα λίνκ είναι νεκρά. Δοκιμάστε το εξής.
Πάρ΄τε τα λίνκ ή το μονό λίνκ και κατεβάστε το με Browser….Δεξί κλίκ στο λίνκ και άνοιγμα σε νέο παράθυρο…
Θα σας ανοίξει μία καρτελίτσα και εσείς θα πατήσετε αποθήκευση, όχι άνοιγμα…
Αυτόματά το λίνκ θα κατέβει και θα αποθηκευτεί στο φάκελο που εσείς έχετε επιλέξει.

One Response to THE DROP (2014) 720p BRRip XVID AC3-RARBG {ENΣΩΜ.ΥΠΟΤ}

Αφήστε μια απάντηση

Chat - Μόνο Εγγεγραμμένοι Χρήστες
You must be signed in to post a comment
DrMakis
(Κυριακή, Δεκ 17. 2017 10:47 ΜΜ)
thanks!
DrMakis
(Κυριακή, Δεκ 17. 2017 12:57 ΜΜ)
Kαλή εβδομάδα Mr.Planet (και σε όλη την παρέα)! από το «How to get away with murder» έχουμε κανένα επισόδειο;
Kαλησπερα DrMakis. το επομενο επεισοδιο θα προβληθη 18 Jan. 2018..
stamilia
(Τετάρτη, Δεκ 6. 2017 09:23 ΜΜ)
http://www.web-planet.co/2017/06/16/the-originals-2013-season-1-ensomipot/
o tetartos kiklos ton original teleionei sto episodio 11?
perimeno neo kyklo h neo episodio?
efharisto poli h doulia sas einai apistefti
stamilia: Aνεβηκαν τα δυο τελευταια επεισοδια.
stamilia
(Τετάρτη, Δεκ 6. 2017 09:22 ΜΜ)
http://www.web-planet.co/2017/02/13/pressure-2015-brrip-xvid-ac3-evo-ensom-ipot/
kalispera!!!!
leei pos den yparhoun ta links!!!
efharisto
LARRYAEK
(Σάββατο, Νοέ 25. 2017 11:20 ΠΜ)
καλημερα σε ολους και καλο σαββ/ριακο.καλημερα Mr.Planet …….
Πολυ καλησπερα LARRYAEK!!!

1