Kατηγορίες

Traffic at a Glance

Pageviews 106.216

Days in Range 30

Average Daily Pageviews 3.541

From Search Results 9.754

Unique IPs 8.655

Last 30 minutes 11

Today 514

Yesterday 4.310

SANTA’S SLAY – Ο ΤΖΟΓΑΔΟΡΟΣ ΑΪ ΒΑΣΙΛΗΣ (2005) DVDrip {ΕΝΣΩΜ.ΥΠΟΤ}

 

Αυθεντικός Τίτλος: Santa’s Slay
Ελληνικός Τίτλος: Ο Τζογαδόρος Αϊ Βασίλης
Είδος Ταινίας: Comedy | Fantasy | Horror
Επίσημη Πρεμιέρα: 25 October 2005 (Canada)
Σκηνοθεσία: David Steiman
Χώρα Παραγωγής: David Steiman
Ηθοποιοί: Bill Goldberg, Douglas Smith, Emilie de Ravin
Εncoder: BlackAngel
Ιmdb: http://www.imdb.com/title/tt0393685/

Υποθεση

Ένας τζογαδόρος διαβολάκος, χάνει σε στοίχημα από έναν άγγελο και αναγκάζεται να αναλάβει το ρόλο του ’γιου Βασίλη μαζί με όλες, τις παραδοσιακές υποχρεώσεις του, για χίλια χρόνια! Φέτος, το στοίχημα λήγει αλλά ο πρώην ’γιος δεν διατίθεται να βγάλει τα ράσα προτού βγάλει τα απωθημένα του! Είναι ένας εναλλακτικός ’γιος Βασίλης που σπάει πόρτες αντί να μπαίνει από τις καμινάδες, μπλέκεται σε καυγάδες, διαπραγματεύσεις και όργια και δίνει μια διαφορετική νότα στον θεσμό των Χριστουγέννων!

Spoiler:

Format : AVI
Format/Info : Audio Video Interleave
File size : 683 MiB
Duration : 1 h 14 min
Overall bit rate : 1 280 kb/s
Writing application : Lavf51.12.1
Writing library : VirtualDub build 30586/release

Video
ID : 0
Format : MPEG-4 Visual
Format profile : Advanced [email protected]
Format settings, BVOP : 2
Format settings, QPel : No
Format settings, GMC : No warppoints
Format settings, Matrix : Default (H.263)
Muxing mode : Packed bitstream
Codec ID : XVID
Codec ID/Hint : XviD
Duration : 1 h 14 min
Bit rate : 1 139 kb/s
Width : 1 024 pixels
Height : 576 pixels
Display aspect ratio : 16:9
Frame rate : 23.976 (24000/1001) FPS
Color space : YUV
Chroma subsampling : 4:2:0
Bit depth : 8 bits
Scan type : Progressive
Compression mode : Lossy
Bits/(Pixel*Frame) : 0.081
Stream size : 608 MiB (89%)
Writing library : XviD 64

Audio
ID : 1
Format : MPEG Audio
Format version : Version 1
Format profile : Layer 3
Mode : Joint stereo
Mode extension : MS Stereo
Codec ID : 55
Codec ID/Hint : MP3
Duration : 1 h 14 min
Bit rate mode : Constant
Bit rate : 128 kb/s
Channel(s) : 2 channels
Sampling rate : 44.1 kHz
Compression mode : Lossy
Stream size : 68.3 MiB (10%)
Alignment : Aligned on interleaves
Interleave, duration : 26 ms (0.63 video frame)
Interleave, preload duration : 522 ms
Writing library : LAME3.97


ΑΝ ΣΑΣ ΑΡΕΣΕΙ Η ΔΟΥΛΕΙΑ ΜΟΥ ΚΑΙ ΘΕΛΕΤΕ ΝΑ ΜΕ ΣΤΗΡΙΞΕΤΕ,
ΚΑΝΤΕ ΕΝΑ ΛΟΓΑΡΙΑΣΜΟ ΓΙΑ EASYBYTEZ & UPLOADED
ΚΑΙ ΚΑΤΕΒΑΣΤΕ ΣΑΝ PREMIUM ΑΠΟ 20 ΔΙΑΦΟΡΕΤΙΚΟΥΣ HOST.

EasyBytez Premium Accounts

Για Uploaded απο Εδώ. http://ul.to/ref/3276399


Links Easybytez & Uploaded

Spoiler:

https://paste2.org/fj7B5X1f

https://pastebin.com/ADm3ZdTB

Αγαπητοί φίλοι πολλές φορές ίσως σε κάποια λίνκ σας βγάζει «Server error»
η προβληματικός πάροχος η σφάλμα plugin έχει λήξει.
Αυτό δεν σημαίνει απαραίτητα ότι τα λίνκ είναι νεκρά. Δοκιμάστε το εξής.
Πάρ΄τε τα λίνκ ή το μονό λίνκ και κατεβάστε το με Browser….Δεξί κλίκ στο λίνκ και άνοιγμα σε νέο παράθυρο…
Θα σας ανοίξει μία καρτελίτσα και εσείς θα πατήσετε αποθήκευση, όχι άνοιγμα…
Αυτόματά το λίνκ θα κατέβει και θα αποθηκευτεί στο φάκελο που εσείς έχετε επιλέξει.

Αφήστε μια απάντηση

Chat - Μόνο Εγγεγραμμένοι Χρήστες
You must be signed in to post a comment
DrMakis
(Κυριακή, Δεκ 17. 2017 10:47 ΜΜ)
thanks!
DrMakis
(Κυριακή, Δεκ 17. 2017 12:57 ΜΜ)
Kαλή εβδομάδα Mr.Planet (και σε όλη την παρέα)! από το «How to get away with murder» έχουμε κανένα επισόδειο;
Kαλησπερα DrMakis. το επομενο επεισοδιο θα προβληθη 18 Jan. 2018..
stamilia
(Τετάρτη, Δεκ 6. 2017 09:23 ΜΜ)
http://www.web-planet.co/2017/06/16/the-originals-2013-season-1-ensomipot/
o tetartos kiklos ton original teleionei sto episodio 11?
perimeno neo kyklo h neo episodio?
efharisto poli h doulia sas einai apistefti
stamilia: Aνεβηκαν τα δυο τελευταια επεισοδια.
stamilia
(Τετάρτη, Δεκ 6. 2017 09:22 ΜΜ)
http://www.web-planet.co/2017/02/13/pressure-2015-brrip-xvid-ac3-evo-ensom-ipot/
kalispera!!!!
leei pos den yparhoun ta links!!!
efharisto
LARRYAEK
(Σάββατο, Νοέ 25. 2017 11:20 ΠΜ)
καλημερα σε ολους και καλο σαββ/ριακο.καλημερα Mr.Planet …….
Πολυ καλησπερα LARRYAEK!!!

1