Kατηγορίες

Traffic at a Glance

Pageviews 106.285

Days in Range 30

Average Daily Pageviews 3.543

From Search Results 9.759

Unique IPs 8.661

Last 30 minutes 39

Today 583

Yesterday 4.310

AFTER THE DARK / ΠΡΙΝ ΠΕΣΕΙ ΤΟ ΣΚΟΤΑΔΙ (2013) BRRip XviD MP3-RARBG {ΕΝΣΩΜ.ΥΠΟΤ}

 

Είδος ταινίας: Drama | Fantasy
Σκηνοθεσία: John Huddles
Σενάριο: John Huddles
Ηθοποιοί: James D’Arcy, Sophie Lowe, Daryl Sabara, Freddie Stroma
Πρεμιέρα (US): 07/02/14
Χώρα παραγωγής: USA | Indonesia
Μετάφραση: abbyer4 – legeon – Roula30
iMDB: http://www.imdb.com/title/tt1928340/

Υπόθεση

Σε ένα διεθνές σχολείο στη Τζακάρτα, ένας καθηγητής φιλοσοφίας προκαλεί την 20μελή τάξη του με έναν ξεχωριστό τρόπο. Ζητάει να επιλέξουν ανάμεσα τους δέκα, που θα έφτιαχναν καταφύγιο στα έγκατα και θα ξανάρχιζαν την ανθρώπινη φυλή από την αρχή, σε περίπτωση πυρηνικού ολέθρου.

Spoiler:

Format : AVI
Format/Info : Audio Video Interleave
Format profile : OpenDML
File size : 1.14 GiB
Duration : 1 h 46 min
Overall bit rate : 1 533 kb/s
Writing application : Lavf51.12.1

Video
ID : 0
Format : AVC
Format/Info : Advanced Video Codec
Format profile : [email protected]
Format settings, CABAC : No
Format settings, RefFrames : 1 frame
Format settings, GOP : M=1, N=12
Codec ID : H264
Duration : 1 h 46 min
Bit rate : 1 389 kb/s
Width : 720 pixels
Height : 304 pixels
Display aspect ratio : 2.35:1
Frame rate mode : Variable
Frame rate : 24.000 FPS
Color space : YUV
Chroma subsampling : 4:2:0
Bit depth : 8 bits
Scan type : Progressive
Bits/(Pixel*Frame) : 0.264
Stream size : 1.03 GiB (91%)

Audio
ID : 1
Format : MPEG Audio
Format version : Version 1
Format profile : Layer 3
Mode : Joint stereo
Mode extension : MS Stereo
Codec ID : 55
Codec ID/Hint : MP3
Duration : 1 h 46 min
Bit rate mode : Constant
Bit rate : 128 kb/s
Channel(s) : 2 channels
Sampling rate : 44.1 kHz
Compression mode : Lossy
Stream size : 97.6 MiB (8%)
Alignment : Aligned on interleaves
Interleave, duration : 26 ms (0.63 video frame)
Interleave, preload duration : 26 ms


ΑΝ ΣΑΣ ΑΡΕΣΕΙ Η ΔΟΥΛΕΙΑ ΜΟΥ ΚΑΙ ΘΕΛΕΤΕ ΝΑ ΜΕ ΣΤΗΡΙΞΕΤΕ,
ΚΑΝΤΕ ΕΝΑ ΛΟΓΑΡΙΑΣΜΟ ΓΙΑ EASYBYTEZ & UPLOADED
ΚΑΙ ΚΑΤΕΒΑΣΤΕ ΣΑΝ PREMIUM ΑΠΟ 20 ΔΙΑΦΟΡΕΤΙΚΟΥΣ HOST.

EasyBytez Premium Accounts

Για Uploaded απο Εδώ. http://ul.to/ref/3276399


Links Easybytez & Uploaded

Spoiler:

https://paste2.org/mMhHNLOb

https://pastebin.com/HAickSWL

Αγαπητοί φίλοι πολλές φορές ίσως σε κάποια λίνκ σας βγάζει «Server error»
η προβληματικός πάροχος η σφάλμα plugin έχει λήξει.
Αυτό δεν σημαίνει απαραίτητα ότι τα λίνκ είναι νεκρά. Δοκιμάστε το εξής.
Πάρ΄τε τα λίνκ ή το μονό λίνκ και κατεβάστε το με Browser….Δεξί κλίκ στο λίνκ και άνοιγμα σε νέο παράθυρο…
Θα σας ανοίξει μία καρτελίτσα και εσείς θα πατήσετε αποθήκευση, όχι άνοιγμα…
Αυτόματά το λίνκ θα κατέβει και θα αποθηκευτεί στο φάκελο που εσείς έχετε επιλέξει.

Αφήστε μια απάντηση

Chat - Μόνο Εγγεγραμμένοι Χρήστες
You must be signed in to post a comment
DrMakis
(Κυριακή, Δεκ 17. 2017 10:47 ΜΜ)
thanks!
DrMakis
(Κυριακή, Δεκ 17. 2017 12:57 ΜΜ)
Kαλή εβδομάδα Mr.Planet (και σε όλη την παρέα)! από το «How to get away with murder» έχουμε κανένα επισόδειο;
Kαλησπερα DrMakis. το επομενο επεισοδιο θα προβληθη 18 Jan. 2018..
stamilia
(Τετάρτη, Δεκ 6. 2017 09:23 ΜΜ)
http://www.web-planet.co/2017/06/16/the-originals-2013-season-1-ensomipot/
o tetartos kiklos ton original teleionei sto episodio 11?
perimeno neo kyklo h neo episodio?
efharisto poli h doulia sas einai apistefti
stamilia: Aνεβηκαν τα δυο τελευταια επεισοδια.
stamilia
(Τετάρτη, Δεκ 6. 2017 09:22 ΜΜ)
http://www.web-planet.co/2017/02/13/pressure-2015-brrip-xvid-ac3-evo-ensom-ipot/
kalispera!!!!
leei pos den yparhoun ta links!!!
efharisto
LARRYAEK
(Σάββατο, Νοέ 25. 2017 11:20 ΠΜ)
καλημερα σε ολους και καλο σαββ/ριακο.καλημερα Mr.Planet …….
Πολυ καλησπερα LARRYAEK!!!

1