Kατηγορίες

Traffic at a Glance

Pageviews 106.288

Days in Range 30

Average Daily Pageviews 3.543

From Search Results 9.759

Unique IPs 8.661

Last 30 minutes 42

Today 586

Yesterday 4.310

PANDORA (2016) HDRip {ΕΝΣΩΜ.ΥΠΟΤ}

 

Είδος Ταινίας: Action, Drama
Πρεμιέρα: 7 December 2016 (South Korea)
Σκηνοθέτης: Jong-woo Park
Σενάριο: Jong-woo Park
Ηθοποιοί: Do-bin Baek, Bae Gang-Yoo, Kim Gun
Mετάφραση: Άγνωστος
iMDB: http://www.imdb.com/title/tt6302160/

Υπόθεση

Ο Jae-Hyeok (Kim Nam-Gil) ζει με τη μητέρα του (Kim Young-Ae), την αδελφή του (Moon Jeong-Hee) και τον ανιψιό Min-Jae (Bae Gang-Yoo) σε μια μικρή κορεατική πόλη. Η Yeon-Joo (Kim Joo-Hyun), και ο Pyung-Sub (Jung Jin-Young) εργάζονται στο τοπικό πυρηνικό εργοστάσιο παραγωγής ηλεκτρικής ενέργειας. Ο Pyung-Sub ανησυχεί για τις συνθήκες εκεί, αλλά κανείς στην κυβέρνηση δεν τον ακούει. Όταν ένας σεισμός χτυπά τη μικρή πόλη όπου ζει ο Jae-Hyeok με αποτέλεσμα πολλές εκρήξεις στον πυρηνικό σταθμό. Η κατάσταση ξεφεύγει από τον έλεγχο, προκαλώντας πανικό σε ολόκληρο το έθνος. Για να αποφευχθεί μια άλλη πυρηνική καταστροφή, ο Jae-Hyeok και οι συνεργάτες του επιστρέφουν στον πυρηνικό σταθμό ηλεκτροπαραγωγής.

Spoiler:

Format : Matroska
Format version : Version 4 / Version 2
File size : 1.74 GiB
Duration : 2 h 9 min
Overall bit rate : 1 922 kb/s
Writing application : Lavf57.21.100
Writing library : Lavf57.21.100

Video
ID : 2
Format : AVC
Format/Info : Advanced Video Codec
Format profile : [email protected]
Format settings, CABAC : No
Format settings, RefFrames : 1 frame
Codec ID : V_MPEG4/ISO/AVC
Duration : 2 h 9 min
Bit rate : 1 800 kb/s
Width : 720 pixels
Height : 404 pixels
Display aspect ratio : 16:9
Frame rate mode : Constant
Frame rate : 29.970 (29970/1000) FPS
Color space : YUV
Chroma subsampling : 4:2:0
Bit depth : 8 bits
Scan type : Progressive
Bits/(Pixel*Frame) : 0.206
Stream size : 1.59 GiB (91%)
Writing library : x264 core 119
Encoding settings : cabac=0 / ref=1 / deblock=1:0:0 / analyse=0x1:0x1 / me=dia / subme=1 / psy=1 / psy_rd=1.00:0.00 / mixed_ref=0 / me_range=16 / chroma_me=1 / trellis=0 / 8x8dct=0 / cqm=0 / deadzone=21,11 / fast_pskip=1 / chroma_qp_offset=0 / threads=8 / sliced_threads=0 / nr=0 / decimate=1 / interlaced=0 / bluray_compat=0 / constrained_intra=0 / bframes=0 / weightp=0 / keyint=250 / keyint_min=25 / scenecut=40 / intra_refresh=0 / rc=abr / mbtree=0 / bitrate=1800 / ratetol=1.0 / qcomp=0.60 / qpmin=0 / qpmax=69 / qpstep=4 / ip_ratio=1.40 / aq=1:1.00
Default : Yes
Forced : No
DURATION : 02:09:44.483000000

Audio
ID : 1
Format : MPEG Audio
Format version : Version 1
Format profile : Layer 3
Mode : Joint stereo
Mode extension : MS Stereo
Codec ID : A_MPEG/L3
Codec ID/Hint : MP3
Duration : 2 h 9 min
Bit rate mode : Constant
Bit rate : 128 kb/s
Channel(s) : 2 channels
Sampling rate : 44.1 kHz
Compression mode : Lossy
Delay relative to video : -58 ms
Stream size : 119 MiB (7%)
Writing library : Lavc57.20.100 libmp3lame
Language : unknown
Default : Yes
Forced : No
DURATION : 02:09:44.423000000


ΑΝ ΣΑΣ ΑΡΕΣΕΙ Η ΔΟΥΛΕΙΑ ΜΟΥ ΚΑΙ ΘΕΛΕΤΕ ΝΑ ΜΕ ΣΤΗΡΙΞΕΤΕ,
ΚΑΝΤΕ ΕΝΑ ΛΟΓΑΡΙΑΣΜΟ ΓΙΑ EASYBYTEZ & UPLOADED
ΚΑΙ ΚΑΤΕΒΑΣΤΕ ΣΑΝ PREMIUM ΑΠΟ 20 ΔΙΑΦΟΡΕΤΙΚΟΥΣ HOST.

EasyBytez Premium Accounts

Για Uploaded απο Εδώ. http://ul.to/ref/3276399


Links Easybytez & Uploaded

Spoiler:

https://paste2.org/p4F6NXXE

https://pastebin.com/imscdV7k

Αγαπητοί φίλοι πολλές φορές ίσως σε κάποια λίνκ σας βγάζει «Server error»
η προβληματικός πάροχος η σφάλμα plugin έχει λήξει.
Αυτό δεν σημαίνει απαραίτητα ότι τα λίνκ είναι νεκρά. Δοκιμάστε το εξής.
Πάρ΄τε τα λίνκ ή το μονό λίνκ και κατεβάστε το με Browser….Δεξί κλίκ στο λίνκ και άνοιγμα σε νέο παράθυρο…
Θα σας ανοίξει μία καρτελίτσα και εσείς θα πατήσετε αποθήκευση, όχι άνοιγμα…
Αυτόματά το λίνκ θα κατέβει και θα αποθηκευτεί στο φάκελο που εσείς έχετε επιλέξει.

Αφήστε μια απάντηση

Chat - Μόνο Εγγεγραμμένοι Χρήστες
You must be signed in to post a comment
DrMakis
(Κυριακή, Δεκ 17. 2017 10:47 ΜΜ)
thanks!
DrMakis
(Κυριακή, Δεκ 17. 2017 12:57 ΜΜ)
Kαλή εβδομάδα Mr.Planet (και σε όλη την παρέα)! από το «How to get away with murder» έχουμε κανένα επισόδειο;
Kαλησπερα DrMakis. το επομενο επεισοδιο θα προβληθη 18 Jan. 2018..
stamilia
(Τετάρτη, Δεκ 6. 2017 09:23 ΜΜ)
http://www.web-planet.co/2017/06/16/the-originals-2013-season-1-ensomipot/
o tetartos kiklos ton original teleionei sto episodio 11?
perimeno neo kyklo h neo episodio?
efharisto poli h doulia sas einai apistefti
stamilia: Aνεβηκαν τα δυο τελευταια επεισοδια.
stamilia
(Τετάρτη, Δεκ 6. 2017 09:22 ΜΜ)
http://www.web-planet.co/2017/02/13/pressure-2015-brrip-xvid-ac3-evo-ensom-ipot/
kalispera!!!!
leei pos den yparhoun ta links!!!
efharisto
LARRYAEK
(Σάββατο, Νοέ 25. 2017 11:20 ΠΜ)
καλημερα σε ολους και καλο σαββ/ριακο.καλημερα Mr.Planet …….
Πολυ καλησπερα LARRYAEK!!!

1