Kατηγορίες

Traffic at a Glance

Pageviews 106.216

Days in Range 30

Average Daily Pageviews 3.541

From Search Results 9.754

Unique IPs 8.655

Last 30 minutes 11

Today 514

Yesterday 4.310

SUPER DARK TIMES (2017) LIMITED 720p BluRay x264-USURY {ΞΕΧΩΡ.ΥΠΟΤ}

 

Αυθεντικός Τίτλος: Super Dark Times
Είδος Ταινίας: Drama, Thriller
Πρεμιέρα στην Αμερική: 29 September 2017
Σκηνοθέτης: Kevin Phillips
Σενάριο: Ben Collins (co-writer), Luke Piotrowski (co-writer)
Ηθοποιοί: Owen Campbell, Charlie Tahan, Elizabeth Cappuccino
Μετάφραση: Tiramola
Διάρκεια: 100 Λεπτά
iMDB: http://www.imdb.com/title/tt5112578/

Υπόθεση

Στο Super Dark Times πρωταγωνιστούν οι Owen Campbell και Charlie Tahan ως κολλητοί που μεγαλώνουν μαζί σε ένα προάστιο της Νέας Υόρκης την δεκαετία του ’90, όπου η εφηβική ζωή περιστρέφεται γύρω από μπαλιές, τα πρώτα ερωτικά σκιρτήματα και την επιθυμία για δημοτικότητα. Όταν ένα τραυματικό περιστατικό οδηγεί σε ρήξη τους μέχρι πρότινος αχώριστους φίλους, η νεανική αθωότητα εξαφανίζεται απότομα. Κάθε νεαρός επεξεργάζεται την τραγωδία που συνέβη με τον δικό του τρόπο, έως ότου τα πράγματα γίνονται πιο περίπλοκα και αποκτούν μία ιδιαίτερη ροπή προς τη βία.

Spoiler:

Super.Dark.Times.2017.LIMITED.720p.BluRay.x264-USURY.mkv
Format : Matroska
Format version : Version 4 / Version 2
File size : 4.36 GiB
Duration : 1h 43mn
Overall bit rate : 6 066 Kbps
Encoded date : UTC 2017-11-17 11:34:32
Writing application : mkvmerge v8.3.0 (‘Over the Horizon’) 64bit
Writing library : libebml v1.3.1 + libmatroska v1.4.2
DURATION : 01:40:21.849000000
NUMBER_OF_FRAMES : 1594
NUMBER_OF_BYTES : 43740
_STATISTICS_WRITING_APP : mkvmerge v8.3.0 (‘Over the Horizon’) 64bit
_STATISTICS_WRITING_DATE_UTC : 2017-11-17 11:34:32
_STATISTICS_TAGS : BPS DURATION NUMBER_OF_FRAMES NUMBER_OF_BYTES

Video
ID : 1
Format : AVC
Format/Info : Advanced Video Codec
Format profile : [email protected]
Format settings, CABAC : Yes
Format settings, ReFrames : 5 frames
Codec ID : V_MPEG4/ISO/AVC
Duration : 1h 43mn
Bit rate : 4 564 Kbps
Width : 1 280 pixels
Height : 536 pixels
Display aspect ratio : 2.40:1
Frame rate : 23.976 fps
Color space : YUV
Chroma subsampling : 4:2:0
Bit depth : 8 bits
Scan type : Progressive
Bits/(Pixel*Frame) : 0.277
Stream size : 3.19 GiB (73%)
Writing library : x264 core 152 r2851 ba24899
Encoding settings : cabac=1 / ref=5 / deblock=1:-3:-3 / analyse=0x3:0x133 / me=umh / subme=9 / psy=1 / psy_rd=1.00:0.00 / mixed_ref=1 / me_range=16 / chroma_me=1 / trellis=2 / 8x8dct=1 / cqm=0 / deadzone=21,11 / fast_pskip=0 / chroma_qp_offset=-2 / threads=17 / lookahead_threads=1 / sliced_threads=0 / nr=0 / decimate=1 / interlaced=0 / bluray_compat=0 / constrained_intra=0 / bframes=3 / b_pyramid=2 / b_adapt=1 / b_bias=0 / direct=3 / weightb=1 / open_gop=0 / weightp=2 / keyint=240 / keyint_min=24 / scenecut=40 / intra_refresh=0 / rc_lookahead=50 / rc=2pass / mbtree=1 / bitrate=4564 / ratetol=1.0 / qcomp=0.60 / qpmin=0 / qpmax=69 / qpstep=4 / cplxblur=20.0 / qblur=0.5 / ip_ratio=1.40 / aq=1:1.00
Language : English
DURATION : 01:42:49.997000000
NUMBER_OF_FRAMES : 147932
NUMBER_OF_BYTES : 3518829723
_STATISTICS_WRITING_APP : mkvmerge v8.3.0 (‘Over the Horizon’) 64bit
_STATISTICS_WRITING_DATE_UTC : 2017-11-17 11:34:32
_STATISTICS_TAGS : BPS DURATION NUMBER_OF_FRAMES NUMBER_OF_BYTES

Audio
ID : 2
Format : DTS
Format/Info : Digital Theater Systems
Codec ID : A_DTS
Duration : 1h 43mn
Bit rate mode : Constant
Bit rate : 1 510 Kbps
Channel(s) : 6 channels
Channel positions : Front: L C R, Side: L R, LFE
Sampling rate : 48.0 KHz
Bit depth : 24 bits
Compression mode : Lossy
Stream size : 1.09 GiB (25%)
Language : English


ΑΝ ΣΑΣ ΑΡΕΣΕΙ Η ΔΟΥΛΕΙΑ ΜΟΥ ΚΑΙ ΘΕΛΕΤΕ ΝΑ ΜΕ ΣΤΗΡΙΞΕΤΕ,
ΚΑΝΤΕ ΕΝΑ ΛΟΓΑΡΙΑΣΜΟ ΓΙΑ EASYBYTEZ & UPLOADED
ΚΑΙ ΚΑΤΕΒΑΣΤΕ ΣΑΝ PREMIUM ΑΠΟ 20 ΔΙΑΦΟΡΕΤΙΚΟΥΣ HOST.

EasyBytez Premium Accounts

Για Uploaded απο Εδώ. http://ul.to/ref/3276399


Links Easybytez & Uploaded

Spoiler:

https://paste2.org/5chNGUxa

https://pastebin.com/JqFyExKH

Αγαπητοί φίλοι πολλές φορές ίσως σε κάποια λίνκ σας βγάζει «Server error»
η προβληματικός πάροχος η σφάλμα plugin έχει λήξει.
Αυτό δεν σημαίνει απαραίτητα ότι τα λίνκ είναι νεκρά. Δοκιμάστε το εξής.
Πάρ΄τε τα λίνκ ή το μονό λίνκ και κατεβάστε το με Browser….Δεξί κλίκ στο λίνκ και άνοιγμα σε νέο παράθυρο…
Θα σας ανοίξει μία καρτελίτσα και εσείς θα πατήσετε αποθήκευση, όχι άνοιγμα…
Αυτόματά το λίνκ θα κατέβει και θα αποθηκευτεί στο φάκελο που εσείς έχετε επιλέξει.

Αφήστε μια απάντηση

Chat - Μόνο Εγγεγραμμένοι Χρήστες
You must be signed in to post a comment
DrMakis
(Κυριακή, Δεκ 17. 2017 10:47 ΜΜ)
thanks!
DrMakis
(Κυριακή, Δεκ 17. 2017 12:57 ΜΜ)
Kαλή εβδομάδα Mr.Planet (και σε όλη την παρέα)! από το «How to get away with murder» έχουμε κανένα επισόδειο;
Kαλησπερα DrMakis. το επομενο επεισοδιο θα προβληθη 18 Jan. 2018..
stamilia
(Τετάρτη, Δεκ 6. 2017 09:23 ΜΜ)
http://www.web-planet.co/2017/06/16/the-originals-2013-season-1-ensomipot/
o tetartos kiklos ton original teleionei sto episodio 11?
perimeno neo kyklo h neo episodio?
efharisto poli h doulia sas einai apistefti
stamilia: Aνεβηκαν τα δυο τελευταια επεισοδια.
stamilia
(Τετάρτη, Δεκ 6. 2017 09:22 ΜΜ)
http://www.web-planet.co/2017/02/13/pressure-2015-brrip-xvid-ac3-evo-ensom-ipot/
kalispera!!!!
leei pos den yparhoun ta links!!!
efharisto
LARRYAEK
(Σάββατο, Νοέ 25. 2017 11:20 ΠΜ)
καλημερα σε ολους και καλο σαββ/ριακο.καλημερα Mr.Planet …….
Πολυ καλησπερα LARRYAEK!!!

1