Kατηγορίες

Traffic at a Glance

Pageviews 113.468

Days in Range 30

Average Daily Pageviews 3.782

From Search Results 11.116

Unique IPs 8.706

Last 30 minutes 4

Today 356

Yesterday 3.700

MY HONOR WAS LOYALTY (2016) BRRip {ΕΝΣΩΜ.ΥΠΟΤ}

 

Είδος Ταινίας: Drama, War
Πρεμιέρα: 2016 (Italy)
Σκηνοθέτης: Alessandro Pepe
Σενάριο: Alessandro Pepe (original story)
Ηθοποιοί: Leone Frisa, Francesco Migliore, Paolo Vaccarino
Mετάφραση: Άγνωστος
iMDB: http://www.imdb.com/title/tt4544696/

Υπόθεση

Μία αρραβωνιασμένη που σχεδιάζει το γάμο της με τον σκηνοθέτη θεάτρου και χορογράφο μέλλοντα άντρα της, ξαφνικά ερωτεύεται έναν που ασχολείται με το κέτερινγκ, καθότι φιλάει με τέτοιο τρόπο που κανείς άλλος δεν την έχει φιλήσει ποτέ…

Spoiler:

Format : Matroska
Format version : Version 4 / Version 2
File size : 1.76 GiB
Duration : 1 h 53 min
Overall bit rate : 2 231 kb/s
Writing application : Lavf57.21.100
Writing library : Lavf57.21.100

Video
ID : 2
Format : AVC
Format/Info : Advanced Video Codec
Format profile : [email protected]
Format settings, CABAC : No
Format settings, RefFrames : 1 frame
Codec ID : V_MPEG4/ISO/AVC
Duration : 1 h 53 min
Bit rate : 2 100 kb/s
Width : 720 pixels
Height : 404 pixels
Display aspect ratio : 16:9
Frame rate mode : Constant
Frame rate : 29.970 (29970/1000) FPS
Color space : YUV
Chroma subsampling : 4:2:0
Bit depth : 8 bits
Scan type : Progressive
Bits/(Pixel*Frame) : 0.241
Stream size : 1.63 GiB (92%)
Writing library : x264 core 119
Encoding settings : cabac=0 / ref=1 / deblock=1:0:0 / analyse=0x1:0x1 / me=dia / subme=1 / psy=1 / psy_rd=1.00:0.00 / mixed_ref=0 / me_range=16 / chroma_me=1 / trellis=0 / 8x8dct=0 / cqm=0 / deadzone=21,11 / fast_pskip=1 / chroma_qp_offset=0 / threads=8 / sliced_threads=0 / nr=0 / decimate=1 / interlaced=0 / bluray_compat=0 / constrained_intra=0 / bframes=0 / weightp=0 / keyint=250 / keyint_min=25 / scenecut=40 / intra_refresh=0 / rc=abr / mbtree=0 / bitrate=2100 / ratetol=1.0 / qcomp=0.60 / qpmin=0 / qpmax=69 / qpstep=4 / ip_ratio=1.40 / aq=1:1.00
Default : Yes
Forced : No
DURATION : 01:53:07.486000000

Audio
ID : 1
Format : MPEG Audio
Format version : Version 1
Format profile : Layer 3
Mode : Joint stereo
Mode extension : MS Stereo
Codec ID : A_MPEG/L3
Codec ID/Hint : MP3
Duration : 1 h 53 min
Bit rate mode : Constant
Bit rate : 128 kb/s
Channel(s) : 2 channels
Sampling rate : 44.1 kHz
Compression mode : Lossy
Delay relative to video : -58 ms
Stream size : 104 MiB (6%)
Writing library : Lavc57.20.100 libmp3lame
Language : unknown
Default : Yes
Forced : No
DURATION : 01:53:07.427000000


ΑΝ ΣΑΣ ΑΡΕΣΕΙ Η ΔΟΥΛΕΙΑ ΜΟΥ ΚΑΙ ΘΕΛΕΤΕ ΝΑ ΜΕ ΣΤΗΡΙΞΕΤΕ,
ΚΑΝΤΕ ΕΝΑ ΛΟΓΑΡΙΑΣΜΟ ΓΙΑ EASYBYTEZ & UPLOADED
ΚΑΙ ΚΑΤΕΒΑΣΤΕ ΣΑΝ PREMIUM ΑΠΟ 20 ΔΙΑΦΟΡΕΤΙΚΟΥΣ HOST.

EasyBytez Premium Accounts

Για Uploaded απο Εδώ. http://ul.to/ref/3276399


Links Easybytez & Uploaded

Spoiler:

https://paste2.org/5npsgPUn

https://pastebin.com/HV95bpD6

Αγαπητοί φίλοι πολλές φορές ίσως σε κάποια λίνκ σας βγάζει «Server error»
η προβληματικός πάροχος η σφάλμα plugin έχει λήξει.
Αυτό δεν σημαίνει απαραίτητα ότι τα λίνκ είναι νεκρά. Δοκιμάστε το εξής.
Πάρ΄τε τα λίνκ ή το μονό λίνκ και κατεβάστε το με Browser….Δεξί κλίκ στο λίνκ και άνοιγμα σε νέο παράθυρο…
Θα σας ανοίξει μία καρτελίτσα και εσείς θα πατήσετε αποθήκευση, όχι άνοιγμα…
Αυτόματά το λίνκ θα κατέβει και θα αποθηκευτεί στο φάκελο που εσείς έχετε επιλέξει.

One Response to MY HONOR WAS LOYALTY (2016) BRRip {ΕΝΣΩΜ.ΥΠΟΤ}

Αφήστε μια απάντηση

Chat - Μόνο Εγγεγραμμένοι Χρήστες
You must be signed in to post a comment
Mr.Planet
(Τρίτη, Ιαν 16. 2018 11:51 ΜΜ)
καλως ηρθες στην παρεα μας panosdoum
panosdoum
(Τρίτη, Ιαν 16. 2018 10:15 ΜΜ)
οκ το βρηκα
panosdoum
(Τρίτη, Ιαν 16. 2018 10:07 ΜΜ)
καλησπέρα είμαι καινούργιος στο site δεν γνωρίζω πως κατεβάζετε
stamilia
(Τρίτη, Ιαν 16. 2018 12:25 ΠΜ)
σε ευχαριστω πολυ
stamilia
(Δευτέρα, Ιαν 15. 2018 09:37 ΜΜ)
Indiana Jones and the Kingdom of the Crystal Skull μήπως μπορουμε να βρούμε κάτι γιαυτό?
Mr.Planet: σε λιγο θα ανεβει.

1 · 2 · 3 · 4 · 5