Kατηγορίες

Traffic at a Glance

Pageviews 113.464

Days in Range 30

Average Daily Pageviews 3.782

From Search Results 11.116

Unique IPs 8.705

Last 30 minutes 10

Today 352

Yesterday 3.700

MAIGRET IN MONTMARTRE (2017) 720p HDTV x264-MTB {ENΣΩΜ.ΥΠΟΤ}

 

Είδος Ταινίας: Crime, Drama, Mystery
Ελληνική Πρεμιέρα: TV Movie 24 December 2017
Σκηνοθέτης: Thaddeus O’Sullivan
Σενάριο: Guy Andrews, Georges Simenon (novel)
Ηθοποιοί: Nicola Sloane, Sebastian De Souza, Simon Gregor
Mετάφραση: Calamity Jane
Imdb: http://www.imdb.com/title/tt5076214/

Υπόθεση: Ο Maigret διερευνά τις τυχαίες δολοφονίες μιας Κοντέσσας και ενός showgirl και ανακαλύπτει ένα σκοτεινό μυστικό που συνδέει τις προηγούμενες ζωές τους στο Grand Hotel στη Νίκαια.

Spoiler:

Format : Matroska
Format version : Version 4 / Version 2
File size : 1.23 GiB
Duration : 1 h 29 min
Overall bit rate : 1 964 kb/s
Encoded date : UTC 2018-01-10 01:08:27
Writing application : mkvmerge v7.8.0 (‘River Man’) 32bit built on Mar 27 2015 16:18:02
Writing library : libebml v1.3.1 + libmatroska v1.4.2

Video
ID : 1
Format : AVC
Format/Info : Advanced Video Codec
Format profile : [email protected]
Format settings : CABAC / 5 Ref Frames
Format settings, CABAC : Yes
Format settings, ReFrames : 5 frames
Codec ID : V_MPEG4/ISO/AVC
Duration : 1 h 29 min
Bit rate : 1 770 kb/s
Width : 1 280 pixels
Height : 720 pixels
Display aspect ratio : 16:9
Frame rate mode : Constant
Frame rate : 25.000 FPS
Color space : YUV
Chroma subsampling : 4:2:0
Bit depth : 8 bits
Scan type : Progressive
Bits/(Pixel*Frame) : 0.077
Stream size : 1.11 GiB (90%)
Writing library : x264 core 148 r2744 b97ae06
Encoding settings : cabac=1 / ref=5 / deblock=1:-1:-1 / analyse=0x3:0x133 / me=umh / subme=7 / psy=1 / psy_rd=1.00:0.00 / mixed_ref=1 / me_range=16 / chroma_me=1 / trellis=1 / 8x8dct=1 / cqm=0 / deadzone=21,11 / fast_pskip=0 / chroma_qp_offset=-2 / threads=12 / lookahead_threads=2 / sliced_threads=0 / slices=4 / nr=0 / decimate=1 / interlaced=0 / bluray_compat=0 / constrained_intra=0 / bframes=5 / b_pyramid=2 / b_adapt=1 / b_bias=0 / direct=1 / weightb=1 / open_gop=0 / weightp=2 / keyint=250 / keyint_min=25 / scenecut=40 / intra_refresh=0 / rc_lookahead=40 / rc=2pass / mbtree=1 / bitrate=1770 / ratetol=1.0 / qcomp=0.60 / qpmin=0 / qpmax=69 / qpstep=4 / cplxblur=20.0 / qblur=0.5 / vbv_maxrate=15000 / vbv_bufsize=18000 / nal_hrd=none / filler=0 / ip_ratio=1.40 / aq=1:1.00
Default : Yes
Forced : No

Audio
ID : 2
Format : AC-3
Format/Info : Audio Coding 3
Codec ID : A_AC3
Duration : 1 h 29 min
Bit rate mode : Constant
Bit rate : 192 kb/s
Channel(s) : 2 channels
Channel positions : Front: L R
Sampling rate : 48.0 kHz
Frame rate : 31.250 FPS (1536 SPF)
Bit depth : 16 bits
Compression mode : Lossy
Stream size : 123 MiB (10%)
Service kind : Complete Main
Default : Yes
Forced : No


ΑΝ ΣΑΣ ΑΡΕΣΕΙ Η ΔΟΥΛΕΙΑ ΜΟΥ ΚΑΙ ΘΕΛΕΤΕ ΝΑ ΜΕ ΣΤΗΡΙΞΕΤΕ,
ΚΑΝΤΕ ΕΝΑ ΛΟΓΑΡΙΑΣΜΟ ΓΙΑ EASYBYTEZ & UPLOADED
ΚΑΙ ΚΑΤΕΒΑΣΤΕ ΣΑΝ PREMIUM ΑΠΟ 20 ΔΙΑΦΟΡΕΤΙΚΟΥΣ HOST.

EasyBytez Premium Accounts

Για Uploaded απο Εδώ. http://ul.to/ref/3276399


Links Easybytez & Uploaded

Spoiler:

https://paste2.org/N6b07kaJ

https://pastebin.com/kLagcgp6

Αγαπητοί φίλοι πολλές φορές ίσως σε κάποια λίνκ σας βγάζει «Server error»
η προβληματικός πάροχος η σφάλμα plugin έχει λήξει.
Αυτό δεν σημαίνει απαραίτητα ότι τα λίνκ είναι νεκρά. Δοκιμάστε το εξής.
Πάρ΄τε τα λίνκ ή το μονό λίνκ και κατεβάστε το με Browser….Δεξί κλίκ στο λίνκ και άνοιγμα σε νέο παράθυρο…
Θα σας ανοίξει μία καρτελίτσα και εσείς θα πατήσετε αποθήκευση, όχι άνοιγμα…
Αυτόματά το λίνκ θα κατέβει και θα αποθηκευτεί στο φάκελο που εσείς έχετε επιλέξει.

2 Responses to MAIGRET IN MONTMARTRE (2017) 720p HDTV x264-MTB {ENΣΩΜ.ΥΠΟΤ}

Αφήστε μια απάντηση

Chat - Μόνο Εγγεγραμμένοι Χρήστες
You must be signed in to post a comment
Mr.Planet
(Τρίτη, Ιαν 16. 2018 11:51 ΜΜ)
καλως ηρθες στην παρεα μας panosdoum
panosdoum
(Τρίτη, Ιαν 16. 2018 10:15 ΜΜ)
οκ το βρηκα
panosdoum
(Τρίτη, Ιαν 16. 2018 10:07 ΜΜ)
καλησπέρα είμαι καινούργιος στο site δεν γνωρίζω πως κατεβάζετε
stamilia
(Τρίτη, Ιαν 16. 2018 12:25 ΠΜ)
σε ευχαριστω πολυ
stamilia
(Δευτέρα, Ιαν 15. 2018 09:37 ΜΜ)
Indiana Jones and the Kingdom of the Crystal Skull μήπως μπορουμε να βρούμε κάτι γιαυτό?
Mr.Planet: σε λιγο θα ανεβει.

1 · 2 · 3 · 4 · 5