Kατηγορίες

Traffic at a Glance

Pageviews 113.468

Days in Range 30

Average Daily Pageviews 3.782

From Search Results 11.116

Unique IPs 8.706

Last 30 minutes 4

Today 356

Yesterday 3.700

BAD GENIUS (2017) 720p BRRip {ΕΝΣΩΜ.ΥΠΟΤ}

Είδος Ταινίας: Kωμωδία, Εγκλήματος, Δράμα
Ελληνική Πρεμιέρα: 3 May 2017 (Thailand)
Σκηνοθέτης: Nattawut Poonpiriya
Σενάριο: Tanida Hantaweewatana, Vasudhorn Piyaromna
Ηθοποιοί: Chutimon Chuengcharoensukying, Eisaya Hosuwan, Teeradon Supapunpinyo
Mετάφραση: KastriSubs
IMDB : http://www.imdb.com/title/tt6788942/

Υπόθεση

Η Λιν, μαθήτρια Λυκείου που ζει με τον πατέρα της, γίνεται δεκτή σε ένα αναγνωρισμένο σχολείο, κερδίζοντας υποτροφία για τα ακαδημαϊκά της επιτεύγματα Εκεί, γνωρίζει την Γκρέις, κι αρχίζει να την βοηθά για να βγάλει καλύτερους βαθμούς Ο πλούσιος φίλος της Γκρέις, Πατ, της προσφέρει λεφτά, με αντάλλαγμα να βοηθήσει επίσης αυτόν και τους φίλους του Η Λιν βρίσκει ένα τρόπο να τους βοηθήσει όλους, ωστόσο, η απάτη αποκαλύπτεται κατά λάθος από τον Μπανκ, έναν άλλο κορυφαίο μαθητή Όμως παρά την επίπληξη από μέρους του σχολείου, η Λιν θα πιεστεί απ’ τους φίλους της, Γκρέις και Πατ να προχωρήσουν όλοι μαζί, σε ένα πιο σατανικό σχέδιο, που αφορά το διεθνές τεστ.

Spoiler:

Format : Matroska
Format version : Version 4 / Version 2
File size : 1.16 GiB
Duration : 2 h 9 min
Overall bit rate : 1 274 kb/s
Encoded date : UTC 2018-01-11 02:41:20
Writing application : mkvmerge v7.8.0 (‘River Man’) 32bit built on Mar 27 2015 16:18:02
Writing library : libebml v1.3.1 + libmatroska v1.4.2

Video
ID : 1
Format : AVC
Format/Info : Advanced Video Codec
Format profile : [email protected]
Format settings : CABAC / 5 Ref Frames
Format settings, CABAC : Yes
Format settings, ReFrames : 5 frames
Codec ID : V_MPEG4/ISO/AVC
Duration : 2 h 9 min
Bit rate : 1 202 kb/s
Width : 1 280 pixels
Height : 536 pixels
Display aspect ratio : 2.40:1
Frame rate mode : Constant
Frame rate : 24.000 FPS
Color space : YUV
Chroma subsampling : 4:2:0
Bit depth : 8 bits
Scan type : Progressive
Bits/(Pixel*Frame) : 0.073
Stream size : 1.06 GiB (92%)
Writing library : x264 core 148 r2744 b97ae06
Encoding settings : cabac=1 / ref=5 / deblock=1:-1:-1 / analyse=0x3:0x133 / me=umh / subme=7 / psy=1 / psy_rd=1.00:0.00 / mixed_ref=1 / me_range=16 / chroma_me=1 / trellis=1 / 8x8dct=1 / cqm=0 / deadzone=21,11 / fast_pskip=0 / chroma_qp_offset=-2 / threads=12 / lookahead_threads=2 / sliced_threads=0 / slices=4 / nr=0 / decimate=1 / interlaced=0 / bluray_compat=0 / constrained_intra=0 / bframes=5 / b_pyramid=2 / b_adapt=1 / b_bias=0 / direct=1 / weightb=1 / open_gop=0 / weightp=2 / keyint=240 / keyint_min=24 / scenecut=40 / intra_refresh=0 / rc_lookahead=40 / rc=abr / mbtree=1 / bitrate=1202 / ratetol=1.0 / qcomp=0.60 / qpmin=0 / qpmax=69 / qpstep=4 / vbv_maxrate=15000 / vbv_bufsize=18000 / nal_hrd=none / filler=0 / ip_ratio=1.40 / aq=1:1.00
Default : Yes
Forced : No

Audio
ID : 2
Format : AAC
Format/Info : Advanced Audio Codec
Format profile : HE-AAC / LC
Format settings : Explicit
Codec ID : A_AAC-2
Duration : 2 h 9 min
Bit rate : 100.0 kb/s
Channel(s) : 2 channels
Channel positions : Front: L R
Sampling rate : 48.0 kHz / 24.0 kHz
Frame rate : 23.438 FPS (1024 SPF)
Compression mode : Lossy
Stream size : 92.9 MiB (8%)
Default : Yes
Forced : No


ΑΝ ΣΑΣ ΑΡΕΣΕΙ Η ΔΟΥΛΕΙΑ ΜΟΥ ΚΑΙ ΘΕΛΕΤΕ ΝΑ ΜΕ ΣΤΗΡΙΞΕΤΕ,
ΚΑΝΤΕ ΕΝΑ ΛΟΓΑΡΙΑΣΜΟ ΓΙΑ EASYBYTEZ & UPLOADED
ΚΑΙ ΚΑΤΕΒΑΣΤΕ ΣΑΝ PREMIUM ΑΠΟ 20 ΔΙΑΦΟΡΕΤΙΚΟΥΣ HOST.

EasyBytez Premium Accounts

Για Uploaded απο Εδώ. http://ul.to/ref/3276399


Links Easybytez & Uploaded

Spoiler:

https://paste2.org/CWshDwGD

https://pastebin.com/dRjTssns

Αγαπητοί φίλοι πολλές φορές ίσως σε κάποια λίνκ σας βγάζει «Server error»
η προβληματικός πάροχος η σφάλμα plugin έχει λήξει.
Αυτό δεν σημαίνει απαραίτητα ότι τα λίνκ είναι νεκρά. Δοκιμάστε το εξής.
Πάρ΄τε τα λίνκ ή το μονό λίνκ και κατεβάστε το με Browser….Δεξί κλίκ στο λίνκ και άνοιγμα σε νέο παράθυρο…
Θα σας ανοίξει μία καρτελίτσα και εσείς θα πατήσετε αποθήκευση, όχι άνοιγμα…
Αυτόματά το λίνκ θα κατέβει και θα αποθηκευτεί στο φάκελο που εσείς έχετε επιλέξει.

One Response to BAD GENIUS (2017) 720p BRRip {ΕΝΣΩΜ.ΥΠΟΤ}

Αφήστε μια απάντηση

Chat - Μόνο Εγγεγραμμένοι Χρήστες
You must be signed in to post a comment
Mr.Planet
(Τρίτη, Ιαν 16. 2018 11:51 ΜΜ)
καλως ηρθες στην παρεα μας panosdoum
panosdoum
(Τρίτη, Ιαν 16. 2018 10:15 ΜΜ)
οκ το βρηκα
panosdoum
(Τρίτη, Ιαν 16. 2018 10:07 ΜΜ)
καλησπέρα είμαι καινούργιος στο site δεν γνωρίζω πως κατεβάζετε
stamilia
(Τρίτη, Ιαν 16. 2018 12:25 ΠΜ)
σε ευχαριστω πολυ
stamilia
(Δευτέρα, Ιαν 15. 2018 09:37 ΜΜ)
Indiana Jones and the Kingdom of the Crystal Skull μήπως μπορουμε να βρούμε κάτι γιαυτό?
Mr.Planet: σε λιγο θα ανεβει.

1 · 2 · 3 · 4 · 5