Kατηγορίες

Traffic at a Glance

Pageviews 113.454

Days in Range 30

Average Daily Pageviews 3.782

From Search Results 11.116

Unique IPs 8.705

Last 30 minutes 22

Today 342

Yesterday 3.700

COCO: ΤΟ ΓΕYΜΑ ΤΟΥ ΔAΝΤΗ (2017) DVDScr XVID AC3 HQ.Hive-CM8 {ΕΝΣΩΜ.ΥΠΟΤ}

 

Είδος Ταινίας: Κινούμενα σχέδια, Περιπέτεια, Κωμωδία
Ελληνική Πρεμιέρα: 14 Δεκεμβρίου 2017
Σκηνοθέτης: Lee Unkrich, Adrian Molina (co-director)
Σενάριο: Lee Unkrich (original story by), Jason Katz (original story by)
Ηθοποιοί: Anthony Gonzalez, Gael Garc?a Bernal, Benjamin Bratt
Mετάφραση: Tiramola
iMDB: http://www.imdb.com/title/tt2380307/

Υπόθεση

Παρά τη μυστηριώδη οικογενειακή απαγόρευση της μουσικής, η οποία κρατάει ολόκληρες γενιές, ο Μιγκέλ ονειρεύεται να γίνει διάσημος μουσικός όπως το είδωλό του, Ερνέστο δε λα Κρουζ. Μετά από μερικά αλλόκοτα γεγονότα, και λαχταρώντας να αποδείξει το ταλέντο του, ο Μιγκέλ θα βρεθεί στην εκθαμβωτική, συναρπαστική και πολύχρωμη Χώρα τον Προγόνων. Με συνοδοιπόρο έναν γοητευτικό απατεώνα που ακούει στο όνομα Έκτωρ, ο Μιγκέλ θα ζήσει ένα απίστευτο ταξίδι που θα φανερώσει την κρυφή ιστορία της οικογένειας του.

Spoiler:

Format : AVI
Format/Info : Audio Video Interleave
File size : 1.63 GiB
Duration : 1 h 43 min
Overall bit rate : 2 258 kb/s
Writing application : VirtualDubMod 1.5.10.2 (build 2542/release)
Writing library : VirtualDubMod build 2542/release

Video
ID : 0
Format : MPEG-4 Visual
Format profile : Advanced [email protected]
Format settings : BVOP1
Format settings, BVOP : 1
Format settings, QPel : No
Format settings, GMC : No warppoints
Format settings, Matrix : Default (H.263)
Muxing mode : Packed bitstream
Codec ID : XVID
Codec ID/Hint : XviD
Duration : 1 h 43 min
Bit rate : 1 993 kb/s
Width : 720 pixels
Height : 304 pixels
Display aspect ratio : 2.35:1
Frame rate : 30.000 FPS
Color space : YUV
Chroma subsampling : 4:2:0
Bit depth : 8 bits
Scan type : Progressive
Compression mode : Lossy
Bits/(Pixel*Frame) : 0.304
Stream size : 1.44 GiB (88%)
Writing library : XviD 64

Audio
ID : 1
Format : AC-3
Format/Info : Audio Coding 3
Codec ID : 2000
Duration : 1 h 43 min
Bit rate mode : Constant
Bit rate : 256 kb/s
Channel(s) : 2 channels
Channel positions : Front: L R
Sampling rate : 48.0 kHz
Frame rate : 31.250 FPS (1536 SPF)
Bit depth : 16 bits
Compression mode : Lossy
Delay relative to video : 24 ms
Stream size : 190 MiB (11%)
Alignment : Split accross interleaves
Interleave, duration : 64 ms (1.92 video frames)
Interleave, preload duration : 500 ms
Service kind : Complete Main


ΑΝ ΣΑΣ ΑΡΕΣΕΙ Η ΔΟΥΛΕΙΑ ΜΟΥ ΚΑΙ ΘΕΛΕΤΕ ΝΑ ΜΕ ΣΤΗΡΙΞΕΤΕ,
ΚΑΝΤΕ ΕΝΑ ΛΟΓΑΡΙΑΣΜΟ ΓΙΑ EASYBYTEZ & UPLOADED
ΚΑΙ ΚΑΤΕΒΑΣΤΕ ΣΑΝ PREMIUM ΑΠΟ 20 ΔΙΑΦΟΡΕΤΙΚΟΥΣ HOST.

EasyBytez Premium Accounts

Για Uploaded απο Εδώ. http://ul.to/ref/3276399


Links Easybytez & Uploaded

Spoiler:

https://paste2.org/GJgBGgyj

https://pastebin.com/FtA32tyq

Αγαπητοί φίλοι πολλές φορές ίσως σε κάποια λίνκ σας βγάζει «Server error»
η προβληματικός πάροχος η σφάλμα plugin έχει λήξει.
Αυτό δεν σημαίνει απαραίτητα ότι τα λίνκ είναι νεκρά. Δοκιμάστε το εξής.
Πάρ΄τε τα λίνκ ή το μονό λίνκ και κατεβάστε το με Browser….Δεξί κλίκ στο λίνκ και άνοιγμα σε νέο παράθυρο…
Θα σας ανοίξει μία καρτελίτσα και εσείς θα πατήσετε αποθήκευση, όχι άνοιγμα…
Αυτόματά το λίνκ θα κατέβει και θα αποθηκευτεί στο φάκελο που εσείς έχετε επιλέξει.

Αφήστε μια απάντηση

Chat - Μόνο Εγγεγραμμένοι Χρήστες
You must be signed in to post a comment
Mr.Planet
(Τρίτη, Ιαν 16. 2018 11:51 ΜΜ)
καλως ηρθες στην παρεα μας panosdoum
panosdoum
(Τρίτη, Ιαν 16. 2018 10:15 ΜΜ)
οκ το βρηκα
panosdoum
(Τρίτη, Ιαν 16. 2018 10:07 ΜΜ)
καλησπέρα είμαι καινούργιος στο site δεν γνωρίζω πως κατεβάζετε
stamilia
(Τρίτη, Ιαν 16. 2018 12:25 ΠΜ)
σε ευχαριστω πολυ
stamilia
(Δευτέρα, Ιαν 15. 2018 09:37 ΜΜ)
Indiana Jones and the Kingdom of the Crystal Skull μήπως μπορουμε να βρούμε κάτι γιαυτό?
Mr.Planet: σε λιγο θα ανεβει.

1 · 2 · 3 · 4 · 5