Kατηγορίες

Traffic at a Glance

Pageviews 113.467

Days in Range 30

Average Daily Pageviews 3.782

From Search Results 11.116

Unique IPs 8.705

Last 30 minutes 3

Today 355

Yesterday 3.700

DESPICABLE ME 3 (2017) 3D 1080p GRE BluRay-Half-SBS-DTS x264-EDeN Micro-HD 4 GiB~ ΜΕΤΑΓΛΩΤΙΣΜΕΝΟ

Είδος Ταινίας: Animation, Action, Adventure
Ελληνική Πρεμιέρα: Πεμ 31 Αυγ 2017
Σκηνοθέτης: Kyle Balda, Pierre Coffin
Σενάριο: Cinco Paul, Ken Daurio
Ηθοποιοί: Steve Carell, Kristen Wiig, Trey Parker
Υπότιτλοι: Μεταγλωτισμένο
Διάρκεια: 90′ Λεπτά

Στα Ελληνικά, με τις φωνές των: Γιάννης Ζουγανέλης (Γκρου/Ντρου), Λευτέρης Ελευθερίου (Μπαλτάζαρ Μπρατ), Ελένη Βογιατζή (Μάργκο), Μυρτώ Ορφανάκου (Ίντιθ), Έλενα Γιαννέτσου (Άγκνες), Κατερίνα Γκίργκις (Λούσι), Νίκος Νίκας (Σάιλας), Ακίνδυνος Γκίκας (Ντέιβ/Μελ), Παναγιώτης Αποστολόπουλος (Κλάιβ), Θοδωρής Σμέρος (Φριτζ), Λίλα Μουτσοπούλου (Μαμά Γκρου), Ντίνος Πικροδημήτρης (Νίκο), Μαρία Αδάμου (Βάλερι), Χρήστος Θάνος, Ζωή Κατσάτου, Λήδα Κουτεντάκη, Γιώργος Ματαράγκας, Γιώργος Παντελεάκης, Θησέας Παπαπαναγιώτου, Γιώργος Ρεντούμης, Ιφιγένεια Στάικου, Στέλιος Ψαρουδάκης. Σκηνοθεσία: Ακίνδυνος Γκίκας. Μετάφραση: Ελένη Κουβοπούλου.
iMDB: http://www.imdb.com/title/tt3469046/

Υπόθεση

Ο αγαπημένος μας Γκρου, επανέρχεται σε άλλη μια ξεκαρδιστική περιπέτεια για μικρούς και μεγάλους. Βλέπετε, εκεί που σχεδίαζε να κλέψει το φεγγάρι και να γίνει επιτέλους ένας πρωτοκλασάτος «κακός», υιοθέτησε τρία μικρά κοριτσάκια, παντρεύτηκε την πράκτορα της Αντιτρομοκρατικής Λούσι και έπιασε κι εκείνος δουλειά στην Αντιτρομοκρατική. Τώρα, όμως, που έχει να αντιμετωπίσει τον Μπαλτάζαρ Μπρατ, ένα εμμονικό πρώην παιδί θαύμα της δεκαετίας του ’80! που έχει εξελιχθεί σε παρανοϊκό κακοποιό, ο Γκρου τα βρίσκει σκούρα. Και σαν να μην έφτανε αυτό, ξαφνικά μαθαίνει πως έχει ένα δίδυμο αδερφό, τον Ντρου, που είναι όλα όσα ο Γκρου δεν είναι: όμορφος, πλούσιος, με μακριά, ξανθά μαλλιά και «επαγγελματίας» κακοποιός!

Spoiler:

Format : MPEG-4
Format profile : Base Media / Version 2
Codec ID : mp42 (mp42)
File size : 3.84 GiB
Duration : 1 h 29 min
Overall bit rate : 6 135 kb/s
Codirector : codirector
Production studio : studio
ContentType : Unknown Type
Encoded date : UTC 2018-01-11 07:06:17
Tagged date : UTC 2018-01-11 07:06:17

Video
ID : 1
Format : AVC
Format/Info : Advanced Video Codec
Format profile : [email protected]
Format settings : CABAC / 2 Ref Frames
Format settings, CABAC : Yes
Format settings, ReFrames : 2 frames
Format settings, GOP : M=3, N=30
Muxing mode : Container [email protected]
Codec ID : avc1
Codec ID/Info : Advanced Video Coding
Duration : 1 h 29 min
Bit rate : 5 938 kb/s
Width : 1 920 pixels
Height : 1 080 pixels
Display aspect ratio : 16:9
Frame rate mode : Constant
Frame rate : 23.976 (24000/1001) FPS
Color space : YUV
Chroma subsampling : 4:2:0
Bit depth : 8 bits
Scan type : Progressive
Bits/(Pixel*Frame) : 0.119
Stream size : 3.72 GiB (97%)
Language : English

Audio
ID : 2
Format : AAC
Format/Info : Advanced Audio Codec
Format profile : LC
Codec ID : mp4a-40-2
Duration : 1 h 29 min
Bit rate mode : Constant
Bit rate : 192 kb/s
Channel(s) : 2 channels
Channel positions : Front: L R
Sampling rate : 48.0 kHz
Frame rate : 46.875 FPS (1024 SPF)
Compression mode : Lossy
Stream size : 123 MiB (3%)
Title : Stereo
Language : English
Default : Yes
Alternate group : 1


ΑΝ ΣΑΣ ΑΡΕΣΕΙ Η ΔΟΥΛΕΙΑ ΜΟΥ ΚΑΙ ΘΕΛΕΤΕ ΝΑ ΜΕ ΣΤΗΡΙΞΕΤΕ,
ΚΑΝΤΕ ΕΝΑ ΛΟΓΑΡΙΑΣΜΟ ΓΙΑ EASYBYTEZ & UPLOADED
ΚΑΙ ΚΑΤΕΒΑΣΤΕ ΣΑΝ PREMIUM ΑΠΟ 20 ΔΙΑΦΟΡΕΤΙΚΟΥΣ HOST.

EasyBytez Premium Accounts

Για Uploaded απο Εδώ. http://ul.to/ref/3276399


Links Easybytez & Uploaded

Spoiler:

https://paste2.org/MmC2vgP0

https://pastebin.com/Q5nWqdVh

Αγαπητοί φίλοι πολλές φορές ίσως σε κάποια λίνκ σας βγάζει «Server error»
η προβληματικός πάροχος η σφάλμα plugin έχει λήξει.
Αυτό δεν σημαίνει απαραίτητα ότι τα λίνκ είναι νεκρά. Δοκιμάστε το εξής.
Πάρ΄τε τα λίνκ ή το μονό λίνκ και κατεβάστε το με Browser….Δεξί κλίκ στο λίνκ και άνοιγμα σε νέο παράθυρο…
Θα σας ανοίξει μία καρτελίτσα και εσείς θα πατήσετε αποθήκευση, όχι άνοιγμα…
Αυτόματά το λίνκ θα κατέβει και θα αποθηκευτεί στο φάκελο που εσείς έχετε επιλέξει.

2 Responses to DESPICABLE ME 3 (2017) 3D 1080p GRE BluRay-Half-SBS-DTS x264-EDeN Micro-HD 4 GiB~ ΜΕΤΑΓΛΩΤΙΣΜΕΝΟ

Αφήστε μια απάντηση

Chat - Μόνο Εγγεγραμμένοι Χρήστες
You must be signed in to post a comment
Mr.Planet
(Τρίτη, Ιαν 16. 2018 11:51 ΜΜ)
καλως ηρθες στην παρεα μας panosdoum
panosdoum
(Τρίτη, Ιαν 16. 2018 10:15 ΜΜ)
οκ το βρηκα
panosdoum
(Τρίτη, Ιαν 16. 2018 10:07 ΜΜ)
καλησπέρα είμαι καινούργιος στο site δεν γνωρίζω πως κατεβάζετε
stamilia
(Τρίτη, Ιαν 16. 2018 12:25 ΠΜ)
σε ευχαριστω πολυ
stamilia
(Δευτέρα, Ιαν 15. 2018 09:37 ΜΜ)
Indiana Jones and the Kingdom of the Crystal Skull μήπως μπορουμε να βρούμε κάτι γιαυτό?
Mr.Planet: σε λιγο θα ανεβει.

1 · 2 · 3 · 4 · 5