Kατηγορίες

Traffic at a Glance

Pageviews 113.468

Days in Range 30

Average Daily Pageviews 3.782

From Search Results 11.116

Unique IPs 8.706

Last 30 minutes 4

Today 356

Yesterday 3.700

PIRATES OF THE CARIBBEAN (2017) 3D 1080p BluRay Half-SBS DTS x264-SPRiNTER-Micro-HD 5.5 GiB {ΞΕΧΩΡ.ΥΠΟΤ}

 

Είδος: Action, Adventure, Fantasy
Σκηνοθεσία: Joachim R?nning, Espen Sandberg
Σενάριο: Jeff Nathanson, Jeff Nathanson, Terry Rossio, Ted Elliott
Ηθοποιοί: Johnny Depp, Kaya Scodelario, Javier Bardem, Orlando Bloom
Πρεμιέρα 25 May 2017 (Greece)
Yπότιτλοι: Eλληνικοί Ξεχωριστοί (2D) & (3D)
Μετάφραση:TheQueen
iMDB: http://www.imdb.com/title/tt1790809/

Υπόθεση

Έχοντας χάσει επαφή με την τύχη του, ο καπετάνιος Τζακ Σπάροου βλέπει την κατάσταση να χειροτερεύει ακόμα περισσότερο όταν θανάσιμοι πειρατές φαντάσματα, οδηγημένοι από τον τρομερό καπετάνιο Σαλαζάρ, δραπετεύουν από το Τρίγωνο του Διαβόλου, αποφασισμένοι να σκοτώσουν κάθε πειρατή στη θάλασσα, μαζί φυσικά και τον Σπάροου. Η μόνη ελπίδα επιβίωσης βρίσκεται στην ανεύρεση της θρυλικής τρίαινας του Ποσειδώνα, ένα ισχυρότατο κατασκεύασμα που παρέχει στον κάτοχο της απόλυτο έλεγχο των θαλασσών. Για να τη βρει, θα χρειαστεί να συνεργαστεί με την Καρίνα Σμιθ, μια πανέξυπνη κι όμορφη αστρονόμο, και τον Χένρι, έναν ξεροκέφαλο νεαρό ναυτικό της βασιλικής ναυτικής ακαδημίας. Στο τιμόνι του Νεκρού Γλάρου, του θλιβερά μικρού και σκοροφαγωμένου πλοίου του, ο Τζακ αγωνίζεται να αλλάξει τη δυσοίωνη μοίρα του, αλλά και να σώσει τη ζωή του από τον πιο επικίνδυνο και μοχθηρό εχθρό που αντιμετώπισε ποτέ.

Spoiler:

Complete name : Pirates.of.the.Caribbean.mp4
Format : MPEG-4
Format profile : Base Media / Version 2
Codec ID : mp42 (mp42)
File size : 5.59 GiB
Duration : 2 h 9 min
Overall bit rate : 6 195 kb/s
Codirector : codirector
Production studio : studio
ContentType : Unknown Type
Encoded date : UTC 2018-01-11 08:08:27
Tagged date : UTC 2018-01-11 08:08:27

Video
ID : 1
Format : AVC
Format/Info : Advanced Video Codec
Format profile : [email protected]
Format settings : CABAC / 2 Ref Frames
Format settings, CABAC : Yes
Format settings, ReFrames : 2 frames
Muxing mode : Container [email protected]
Codec ID : avc1
Codec ID/Info : Advanced Video Coding
Duration : 2 h 9 min
Bit rate : 5 997 kb/s
Width : 1 920 pixels
Height : 1 080 pixels
Display aspect ratio : 16:9
Frame rate mode : Constant
Frame rate : 23.976 (24000/1001) FPS
Color space : YUV
Chroma subsampling : 4:2:0
Bit depth : 8 bits
Scan type : Progressive
Bits/(Pixel*Frame) : 0.121
Stream size : 5.41 GiB (97%)
Language : English

Audio
ID : 2
Format : AAC
Format/Info : Advanced Audio Codec
Format profile : LC
Codec ID : mp4a-40-2
Duration : 2 h 9 min
Bit rate mode : Constant
Bit rate : 192 kb/s
Channel(s) : 2 channels
Channel positions : Front: L R
Sampling rate : 48.0 kHz
Frame rate : 46.875 FPS (1024 SPF)
Compression mode : Lossy
Stream size : 177 MiB (3%)
Title : Stereo
Language : English
Default : Yes
Alternate group : 1


ΑΝ ΣΑΣ ΑΡΕΣΕΙ Η ΔΟΥΛΕΙΑ ΜΟΥ ΚΑΙ ΘΕΛΕΤΕ ΝΑ ΜΕ ΣΤΗΡΙΞΕΤΕ,
ΚΑΝΤΕ ΕΝΑ ΛΟΓΑΡΙΑΣΜΟ ΓΙΑ EASYBYTEZ & UPLOADED
ΚΑΙ ΚΑΤΕΒΑΣΤΕ ΣΑΝ PREMIUM ΑΠΟ 20 ΔΙΑΦΟΡΕΤΙΚΟΥΣ HOST.

EasyBytez Premium Accounts

Για Uploaded απο Εδώ. http://ul.to/ref/3276399


Links Easybytez & Uploaded

Spoiler:

https://paste2.org/123NKO73

 

Αγαπητοί φίλοι πολλές φορές ίσως σε κάποια λίνκ σας βγάζει «Server error»
η προβληματικός πάροχος η σφάλμα plugin έχει λήξει.
Αυτό δεν σημαίνει απαραίτητα ότι τα λίνκ είναι νεκρά. Δοκιμάστε το εξής.
Πάρ΄τε τα λίνκ ή το μονό λίνκ και κατεβάστε το με Browser….Δεξί κλίκ στο λίνκ και άνοιγμα σε νέο παράθυρο…
Θα σας ανοίξει μία καρτελίτσα και εσείς θα πατήσετε αποθήκευση, όχι άνοιγμα…
Αυτόματά το λίνκ θα κατέβει και θα αποθηκευτεί στο φάκελο που εσείς έχετε επιλέξει.

Αφήστε μια απάντηση

Chat - Μόνο Εγγεγραμμένοι Χρήστες
You must be signed in to post a comment
Mr.Planet
(Τρίτη, Ιαν 16. 2018 11:51 ΜΜ)
καλως ηρθες στην παρεα μας panosdoum
panosdoum
(Τρίτη, Ιαν 16. 2018 10:15 ΜΜ)
οκ το βρηκα
panosdoum
(Τρίτη, Ιαν 16. 2018 10:07 ΜΜ)
καλησπέρα είμαι καινούργιος στο site δεν γνωρίζω πως κατεβάζετε
stamilia
(Τρίτη, Ιαν 16. 2018 12:25 ΠΜ)
σε ευχαριστω πολυ
stamilia
(Δευτέρα, Ιαν 15. 2018 09:37 ΜΜ)
Indiana Jones and the Kingdom of the Crystal Skull μήπως μπορουμε να βρούμε κάτι γιαυτό?
Mr.Planet: σε λιγο θα ανεβει.

1 · 2 · 3 · 4 · 5