Kατηγορίες

Traffic at a Glance

Pageviews 113.468

Days in Range 30

Average Daily Pageviews 3.782

From Search Results 11.116

Unique IPs 8.706

Last 30 minutes 4

Today 356

Yesterday 3.700

POLICE STORY /ΟΜΗΡΙΑ (2013) 720p BRRip XviD AC3-RARBG {ΕΝΣΩΜ.ΥΠΟΤ}

 

Ελληνικός Τίτλος: Ομηρία
Είδος Ταινίας: Action, Crime, Drama
Σκηνοθέτης: Ding Sheng
Σεναριογράφος: Alex Jia (script advisor), Ding Sheng
Ηθοποιοί: Jackie Chan, Ye Liu, Tian Jing
Υπότιτλοι: Ενσωματωμένοι Ελληνικοί Υπότιτλοι
Πρεμιέρα: 24 December 2013 (China)
Μετάφραση: dragonfly, vaskar, valitsa3, joker85 ,raiden, pikaso
iMDB: http://www.imdb.com/title/tt2599716/

Υπόθεση

Ο Jackie Chan επιστρέφει σε ένα από τους πιο χαρακτηριστικούς του ρόλους. Ο Zhong Wen, πράκτορας της Κινέζικης Interpol ερευνά μία υπόθεση απαγωγής.

Spoiler:

Format : AVI
Format/Info : Audio Video Interleave
Format profile : OpenDML
File size : 3.19 GiB
Duration : 1 h 50 min
Overall bit rate : 4 147 kb/s
Writing library : VirtualDub build 35491/release

Video
ID : 0
Format : MPEG-4 Visual
Format settings, BVOP : No
Format settings, QPel : No
Format settings, GMC : No warppoints
Format settings, Matrix : Default (H.263)
Codec ID : DX50
Codec ID/Hint : DivX 5
Duration : 1 h 50 min
Bit rate : 3 497 kb/s
Nominal bit rate : 9 708 kb/s
Width : 1 280 pixels
Height : 720 pixels
Display aspect ratio : 16:9
Frame rate : 24.000 FPS
Color space : YUV
Chroma subsampling : 4:2:0
Bit depth : 8 bits
Scan type : Progressive
Compression mode : Lossy
Bits/(Pixel*Frame) : 0.158
Stream size : 2.69 GiB (84%)
Writing library : DivX 6.8.5 (UTC 2009-08-20)

Audio
ID : 1
Format : AC-3
Format/Info : Audio Coding 3
Codec ID : 2000
Duration : 1 h 50 min
Bit rate mode : Constant
Bit rate : 640 kb/s
Channel(s) : 6 channels
Channel positions : Front: L C R, Side: L R, LFE
Sampling rate : 48.0 kHz
Frame rate : 31.250 FPS (1536 SPF)
Bit depth : 16 bits
Compression mode : Lossy
Stream size : 504 MiB (15%)
Alignment : Aligned on interleaves
Interleave, duration : 42 ms (1.00 video frame)
Interleave, preload duration : 512 ms
Service kind : Complete Main


ΑΝ ΣΑΣ ΑΡΕΣΕΙ Η ΔΟΥΛΕΙΑ ΜΟΥ ΚΑΙ ΘΕΛΕΤΕ ΝΑ ΜΕ ΣΤΗΡΙΞΕΤΕ,
ΚΑΝΤΕ ΕΝΑ ΛΟΓΑΡΙΑΣΜΟ ΓΙΑ EASYBYTEZ & UPLOADED
ΚΑΙ ΚΑΤΕΒΑΣΤΕ ΣΑΝ PREMIUM ΑΠΟ 20 ΔΙΑΦΟΡΕΤΙΚΟΥΣ HOST.

EasyBytez Premium Accounts

Για Uploaded απο Εδώ. http://ul.to/ref/3276399


Links Easybytez & Uploaded

Spoiler:

https://paste2.org/jEA7kBct

https://pastebin.com/3MWRTuGW

Αγαπητοί φίλοι πολλές φορές ίσως σε κάποια λίνκ σας βγάζει «Server error»
η προβληματικός πάροχος η σφάλμα plugin έχει λήξει.
Αυτό δεν σημαίνει απαραίτητα ότι τα λίνκ είναι νεκρά. Δοκιμάστε το εξής.
Πάρ΄τε τα λίνκ ή το μονό λίνκ και κατεβάστε το με Browser….Δεξί κλίκ στο λίνκ και άνοιγμα σε νέο παράθυρο…
Θα σας ανοίξει μία καρτελίτσα και εσείς θα πατήσετε αποθήκευση, όχι άνοιγμα…
Αυτόματά το λίνκ θα κατέβει και θα αποθηκευτεί στο φάκελο που εσείς έχετε επιλέξει.

Αφήστε μια απάντηση

Chat - Μόνο Εγγεγραμμένοι Χρήστες
You must be signed in to post a comment
Mr.Planet
(Τρίτη, Ιαν 16. 2018 11:51 ΜΜ)
καλως ηρθες στην παρεα μας panosdoum
panosdoum
(Τρίτη, Ιαν 16. 2018 10:15 ΜΜ)
οκ το βρηκα
panosdoum
(Τρίτη, Ιαν 16. 2018 10:07 ΜΜ)
καλησπέρα είμαι καινούργιος στο site δεν γνωρίζω πως κατεβάζετε
stamilia
(Τρίτη, Ιαν 16. 2018 12:25 ΠΜ)
σε ευχαριστω πολυ
stamilia
(Δευτέρα, Ιαν 15. 2018 09:37 ΜΜ)
Indiana Jones and the Kingdom of the Crystal Skull μήπως μπορουμε να βρούμε κάτι γιαυτό?
Mr.Planet: σε λιγο θα ανεβει.

1 · 2 · 3 · 4 · 5