Kατηγορίες

Traffic at a Glance

Pageviews 113.467

Days in Range 30

Average Daily Pageviews 3.782

From Search Results 11.116

Unique IPs 8.705

Last 30 minutes 3

Today 355

Yesterday 3.700

THE SHAPE OF WATER / Η ΜΟΡΦΗ ΤΟΥ ΝΕΡΟΥ (2017) DVDScr XVID HQ Hive-CM8 {ΕΝΣΩΜ.ΥΠΟΤ}

Είδος: Adventure, Drama, Fantasy
Πρεμιέρα: 15 February 2018 (Greece)
Σκηνοθέτης: Guillermo del Toro
Σενάριο: Guillermo del Toro
Πρεμιέρα 25 May 2017 (Greece)
Ηθοποιοί: Michael Shannon, Michael Stuhlbarg, Octavia Spencer
Μετάφραση: fata morgana
iMDB: http://www.imdb.com/title/tt5580390/

Υπόθεση

1963, καταμεσής του Ψυχρού Πολέμου. Σε ένα εργαστήριο της κυβέρνησης, κρυμμένο και ασφαλισμένο από τα μάτια του κοινού, η μοναχική Ελίσα ζει αιχμάλωτη σε άκρα ησυχία και απομόνωση. Η ζωή της θα αλλάξει για πάντα όταν αυτή και μια συνάδελφος της, η Ζέλντα, ανακαλύπτουν ένα μυστικό πείραμα της κυβέρνησης. Ο Guillermo del Toro εργάζονταν πάνω στην ιδέα επί αρκετά χρόνια, αλλά το 2012 ξεκίνησε να την υλοποιεί. Στο κοινό ανακοινώθηκε το 2016, με τον σκηνοθέτη να επιλέγει να κάνει αυτό αντί του Pacific Rim: Uprising.

Spoiler:

Format : AVI
Format/Info : Audio Video Interleave
Format profile : OpenDML
File size : 1.81 GiB
Duration : 2 h 2 min
Overall bit rate : 2 110 kb/s
Writing application : Lavf55.22.102

Video
ID : 0
Format : MPEG-4 Visual
Format profile : [email protected]
Format settings, BVOP : No
Format settings, QPel : No
Format settings, GMC : No warppoints
Format settings, Matrix : Default (H.263)
Codec ID : FMP4
Duration : 2 h 2 min
Bit rate : 1 776 kb/s
Width : 720 pixels
Height : 384 pixels
Display aspect ratio : 1.85:1
Frame rate : 30.000 FPS
Color space : YUV
Chroma subsampling : 4:2:0
Bit depth : 8 bits
Scan type : Progressive
Compression mode : Lossy
Bits/(Pixel*Frame) : 0.214
Stream size : 1.52 GiB (84%)
Writing library : Lavc55.47.100

Audio
ID : 1
Format : MPEG Audio
Format version : Version 1
Format profile : Layer 3
Format settings : Joint stereo
Codec ID : 55
Codec ID/Hint : MP3
Duration : 2 h 2 min
Bit rate mode : Constant
Bit rate : 320 kb/s
Channel(s) : 2 channels
Sampling rate : 44.1 kHz
Compression mode : Lossy
Stream size : 281 MiB (15%)
Alignment : Aligned on interleaves
Interleave, duration : 26 ms (0.78 video frame)
Interleave, preload duration : 52 ms
Writing library : LAME?? &}HJ~¬Ψ΄R?²Ci


ΑΝ ΣΑΣ ΑΡΕΣΕΙ Η ΔΟΥΛΕΙΑ ΜΟΥ ΚΑΙ ΘΕΛΕΤΕ ΝΑ ΜΕ ΣΤΗΡΙΞΕΤΕ,
ΚΑΝΤΕ ΕΝΑ ΛΟΓΑΡΙΑΣΜΟ ΓΙΑ EASYBYTEZ & UPLOADED
ΚΑΙ ΚΑΤΕΒΑΣΤΕ ΣΑΝ PREMIUM ΑΠΟ 20 ΔΙΑΦΟΡΕΤΙΚΟΥΣ HOST.

EasyBytez Premium Accounts

Για Uploaded απο Εδώ. http://ul.to/ref/3276399


Links Easybytez & Uploaded

Spoiler:

https://paste2.org/FZdfcM8j

https://pastebin.com/mJWeR3d9

Αγαπητοί φίλοι πολλές φορές ίσως σε κάποια λίνκ σας βγάζει «Server error»
η προβληματικός πάροχος η σφάλμα plugin έχει λήξει.
Αυτό δεν σημαίνει απαραίτητα ότι τα λίνκ είναι νεκρά. Δοκιμάστε το εξής.
Πάρ΄τε τα λίνκ ή το μονό λίνκ και κατεβάστε το με Browser….Δεξί κλίκ στο λίνκ και άνοιγμα σε νέο παράθυρο…
Θα σας ανοίξει μία καρτελίτσα και εσείς θα πατήσετε αποθήκευση, όχι άνοιγμα…
Αυτόματά το λίνκ θα κατέβει και θα αποθηκευτεί στο φάκελο που εσείς έχετε επιλέξει.

Αφήστε μια απάντηση

Chat - Μόνο Εγγεγραμμένοι Χρήστες
You must be signed in to post a comment
Mr.Planet
(Τρίτη, Ιαν 16. 2018 11:51 ΜΜ)
καλως ηρθες στην παρεα μας panosdoum
panosdoum
(Τρίτη, Ιαν 16. 2018 10:15 ΜΜ)
οκ το βρηκα
panosdoum
(Τρίτη, Ιαν 16. 2018 10:07 ΜΜ)
καλησπέρα είμαι καινούργιος στο site δεν γνωρίζω πως κατεβάζετε
stamilia
(Τρίτη, Ιαν 16. 2018 12:25 ΠΜ)
σε ευχαριστω πολυ
stamilia
(Δευτέρα, Ιαν 15. 2018 09:37 ΜΜ)
Indiana Jones and the Kingdom of the Crystal Skull μήπως μπορουμε να βρούμε κάτι γιαυτό?
Mr.Planet: σε λιγο θα ανεβει.

1 · 2 · 3 · 4 · 5