Kατηγορίες

MURDER ON THE ORIENT EXPRESS / ΕΓΚΛΗΜΑ ΣΤΟ ΟΡΙΑΝ ΕΞΠΡΕΣ (2017) BRRip XviD AC3-XVID {ΕΝΣΩΜ.ΥΠΟΤ}

 

Ελληνικός Τίτλος: Εγκλημα στο Οριάν Εξπρές
Είδος Ταινίας: Crime, Drama, Mystery
Πρεμιέρα: 10 November 2017 (USA)
Σκηνοθέτης: Kenneth Branagh
Σενάριο: Michael Green (screenplay by), Agatha Christie (based upon the novel by)
Ηθοποιοί: Kenneth Branagh, Penelope Cruz, Willem Dafoe
Μετάφραση: Vaghelis Italianο Perfetto
iMDB: http://www.imdb.com/title/tt3402236/

Υπόθεση

Ο διάσημος Βέλγος ντέντεκτιβ Ηρακλής Πουαρό ταξιδεύει με το Οριάντ Εξπρές, αλλά εξαιτίας μιας τρομερής χιονοθύελλας, το τρένο σταματά στα μισά της διαδρομής Κωνσταντινούπολης-Παρισιού. Κατά τη διάρκεια του ταξιδιού, ο Ράτσετ, ένας από τους επιβάτες του τρένου και ήδη ύποπτος για την υπόθεση απαγωγής και δολοφονίας ενός μικρού κοριτσιού, βρίσκεται δολοφονημένος. Εγκλωβισμένοι στα χιόνια και μακριά από την αστυνομία, ο Πουαρό αναλαμβάνει να ρίξει φως στην υπόθεση. Όλοι έχουν κίνητρο, όλοι είναι ύποπτοι αλλά όλοι έχουν ένα καλό άλλοθι. Τελικά θα βρεθεί η λύση του μυστηρίου;

Spoiler:

Format : AVI
Format/Info : Audio Video Interleave
File size : 1.52 GiB
Duration : 1 h 53 min
Overall bit rate : 1 910 kb/s
Writing application : VirtualDubMod 1.5.10.2 (build 2542/release)
Writing library : VirtualDubMod build 2542/release

Video
ID : 0
Format : MPEG-4 Visual
Format profile : Advanced [email protected]
Format settings : BVOP1
Format settings, BVOP : 1
Format settings, QPel : No
Format settings, GMC : No warppoints
Format settings, Matrix : Default (H.263)
Muxing mode : Packed bitstream
Codec ID : XVID
Codec ID/Hint : XviD
Duration : 1 h 53 min
Bit rate : 1 454 kb/s
Width : 720 pixels
Height : 302 pixels
Display aspect ratio : 2.40:1
Frame rate : 23.976 (24000/1001) FPS
Color space : YUV
Chroma subsampling : 4:2:0
Bit depth : 8 bits
Scan type : Progressive
Compression mode : Lossy
Bits/(Pixel*Frame) : 0.279
Stream size : 1.16 GiB (76%)
Writing library : XviD 64

Audio
ID : 1
Format : AC-3
Format/Info : Audio Coding 3
Codec ID : 2000
Duration : 1 h 53 min
Bit rate mode : Constant
Bit rate : 448 kb/s
Channel(s) : 6 channels
Channel positions : Front: L C R, Side: L R, LFE
Sampling rate : 48.0 kHz
Frame rate : 31.250 FPS (1536 SPF)
Bit depth : 16 bits
Compression mode : Lossy
Stream size : 365 MiB (23%)
Alignment : Split accross interleaves
Interleave, duration : 64 ms (1.53 video frames)
Interleave, preload duration : 500 ms
Service kind : Complete Main


ΑΝ ΣΑΣ ΑΡΕΣΕΙ Η ΔΟΥΛΕΙΑ ΜΟΥ ΚΑΙ ΘΕΛΕΤΕ ΝΑ ΜΕ ΣΤΗΡΙΞΕΤΕ,
ΚΑΝΤΕ ΕΝΑ ΛΟΓΑΡΙΑΣΜΟ ΓΙΑ EASYBYTEZ & UPLOADED
ΚΑΙ ΚΑΤΕΒΑΣΤΕ ΣΑΝ PREMIUM ΑΠΟ 20 ΔΙΑΦΟΡΕΤΙΚΟΥΣ HOST.

EasyBytez Premium Accounts

Για Uploaded απο Εδώ. http://ul.to/ref/3276399


Links Easybytez & Uploaded

Spoiler:

https://paste2.org/9a4Y8p1z

https://pastebin.com/evCWhz2x

Αγαπητοί φίλοι πολλές φορές ίσως σε κάποια λίνκ σας βγάζει «Server error»
η προβληματικός πάροχος η σφάλμα plugin έχει λήξει.
Αυτό δεν σημαίνει απαραίτητα ότι τα λίνκ είναι νεκρά. Δοκιμάστε το εξής.
Πάρ΄τε τα λίνκ ή το μονό λίνκ και κατεβάστε το με Browser….Δεξί κλίκ στο λίνκ και άνοιγμα σε νέο παράθυρο…
Θα σας ανοίξει μία καρτελίτσα και εσείς θα πατήσετε αποθήκευση, όχι άνοιγμα…
Αυτόματά το λίνκ θα κατέβει και θα αποθηκευτεί στο φάκελο που εσείς έχετε επιλέξει.

One Response to MURDER ON THE ORIENT EXPRESS / ΕΓΚΛΗΜΑ ΣΤΟ ΟΡΙΑΝ ΕΞΠΡΕΣ (2017) BRRip XviD AC3-XVID {ΕΝΣΩΜ.ΥΠΟΤ}

Αφήστε μια απάντηση

Chat - Μόνο Εγγεγραμμένοι Χρήστες
You must be signed in to post a comment
takisbol
(Παρασκευή, Μαΐ 18. 2018 05:52 ΜΜ)
εστω και καθυστερημένα, ευχαριστώ πολύ Mr. Planet
Mr.Planet
(Πέμπτη, Μαΐ 17. 2018 03:33 ΜΜ)
takisbol.
Aνεβηκαν νεα λινκς.
takisbol
(Τρίτη, Μαΐ 15. 2018 09:20 ΜΜ)
COLONY (2016-2018) SEASONS 1-3 {ενσωμ.υποτ} Episode 302 added
τα λινκς δεν υπάρχουν
stamilia
(Δευτέρα, Μαΐ 14. 2018 07:29 ΜΜ)
ευχαριστω πολυ!!!!
Mr.Planet
(Δευτέρα, Μαΐ 14. 2018 02:06 ΜΜ)
stamilia
ανεβηκαν νεα λινκς.

1 · 2 · 3 · 4 · 5