Kατηγορίες

Traffic at a Glance

Pageviews 104.485

Days in Range 30

Average Daily Pageviews 3.483

From Search Results 9.536

Unique IPs 8.330

Last 30 minutes 8

Today 441

Yesterday 2.895

THE SON OF BIGFOOT / Ο ΓΙΟΣ ΤΟΥ ΜΕΓΑΛΟΠΑΤΟYΣΑ (2017) BRRip.x264 AC3 ~ ΜΕΤΑΓΛΩΤΙΣΜEΝΟ

 

Είδος Ταινίας: Κινούμενα σχέδια, Κωμωδία, Οικογενειακή
Ελληνική Πρεμιέρα: 17 Αυγούστου 2017
Σκηνοθέτης: Jeremy Degruson (as Jeremie Degruson), Ben Stassen
Σενάριο: Bob Barlen, Cal Brunker
Ηθοποιοί: Cinda Adams, Mari Devon, Kirk Thornton
Στα ελληνικά, με τις φωνές των: Σπύρος Μπιμπίλας, Χρήστος Πλαΐνης, Αποστόλης Ψυχράμης, Πέτρος Δαμουλής, Κατερίνα Γκίργκις, Αυγερινός Σουλόπουλος, Θέμης Ψυχογιός, Βούλα Κώστα, Χάρης Βορκάς, Αλέξανδρος Πετρίδης, Λίλιαν Αρχοντή, Θοδωρής Προκοπίου
iMDB: http://www.imdb.com/title/tt5715410/

Υπόθεση

Ο νεαρός Άνταμ ξεκινά ένα επικό, παράτολμο ταξίδι για να ξετυλίξει το μυστήριο πίσω από τον χαμένο για χρόνια πατέρα του, που δεν είναι άλλος από τον θρυλικό Μεγαλοπατούσα! Κρυμμένος βαθιά μέσα στο δάσος για πολύ καιρό ώστε να προστατέψει τον εαυτό του και την οικογένειά του από την HairCo, μία εταιρία-κολοσσό που θέλει να κάνει πειράματα χρησιμοποιώντας το μοναδικό του DNA, θα πρέπει να επανασυνδεθεί με το γιο του και, μαζί, να προετοιμαστούν για τον επερχόμενο κίνδυνο.

Spoiler:

Format : Matroska
Format version : Version 4 / Version 2
File size : 1.24 GiB
Duration : 1 h 31 min
Overall bit rate : 1 931 kb/s
Movie name : The.Son.Of.Bigfoot.2017.720p.GRE.BluRay.x264-D3jaVU
Encoded date : UTC 2018-02-10 16:41:11
Writing application : DVDFab 10.0.2.8
Writing library : libebml v1.3.4 + libmatroska v1.4.5

Video
ID : 1
Format : AVC
Format/Info : Advanced Video Codec
Format profile : [email protected]
Format settings : CABAC / 2 Ref Frames
Format settings, CABAC : Yes
Format settings, ReFrames : 2 frames
Codec ID : V_MPEG4/ISO/AVC
Duration : 1 h 31 min
Bit rate : 1 296 kb/s
Width : 720 pixels
Height : 300 pixels
Display aspect ratio : 2.40:1
Frame rate mode : Constant
Frame rate : 24.000 FPS
Color space : YUV
Chroma subsampling : 4:2:0
Bit depth : 8 bits
Scan type : Progressive
Bits/(Pixel*Frame) : 0.250
Stream size : 845 MiB (67%)
Writing library : x264 core 142
Encoding settings : cabac=1 / ref=1 / deblock=1:-1:-1 / analyse=0x3:0 / me=hex / subme=5 / psy=0 / mixed_ref=0 / me_range=16 / chroma_me=1 / trellis=0 / 8x8dct=1 / cqm=0 / deadzone=21,11 / fast_pskip=0 / chroma_qp_offset=0 / threads=8 / lookahead_threads=2 / sliced_threads=0 / nr=0 / decimate=1 / interlaced=0 / bluray_compat=0 / constrained_intra=0 / bframes=2 / b_pyramid=0 / b_adapt=1 / b_bias=0 / direct=1 / weightb=0 / open_gop=0 / weightp=0 / keyint=24 / keyint_min=13 / scenecut=40 / intra_refresh=0 / rc=abr / mbtree=0 / bitrate=1296 / ratetol=1.0 / qcomp=0.60 / qpmin=0 / qpmax=69 / qpstep=4 / ip_ratio=1.40 / pb_ratio=1.30 / aq=1:1.00
Default : Yes
Forced : No
Color range : Limited
Color primaries : BT.601 NTSC
Transfer characteristics : BT.709
Matrix coefficients : BT.601

Audio
ID : 2
Format : AC-3
Format/Info : Audio Coding 3
Codec ID : A_AC3
Duration : 1 h 31 min
Bit rate mode : Constant
Bit rate : 640 kb/s
Channel(s) : 2 channels
Channel positions : Front: L R
Sampling rate : 48.0 kHz
Frame rate : 31.250 FPS (1536 SPF)
Bit depth : 16 bits
Compression mode : Lossy
Stream size : 420 MiB (33%)
Language : Greek
Service kind : Complete Main
Default : Yes
Forced : No


ΑΝ ΣΑΣ ΑΡΕΣΕΙ Η ΔΟΥΛΕΙΑ ΜΟΥ ΚΑΙ ΘΕΛΕΤΕ ΝΑ ΜΕ ΣΤΗΡΙΞΕΤΕ,
ΚΑΝΤΕ ΕΝΑ ΛΟΓΑΡΙΑΣΜΟ ΓΙΑ EASYBYTEZ & UPLOADED
ΚΑΙ ΚΑΤΕΒΑΣΤΕ ΣΑΝ PREMIUM ΑΠΟ 20 ΔΙΑΦΟΡΕΤΙΚΟΥΣ HOST.

EasyBytez Premium Accounts

Για Uploaded απο Εδώ. http://ul.to/ref/3276399


Links Easybytez & Uploaded

Spoiler:

https://paste2.org/IdpGFk3I

https://pastebin.com/Um17ys69

Αγαπητοί φίλοι πολλές φορές ίσως σε κάποια λίνκ σας βγάζει «Server error»
η προβληματικός πάροχος η σφάλμα plugin έχει λήξει.
Αυτό δεν σημαίνει απαραίτητα ότι τα λίνκ είναι νεκρά. Δοκιμάστε το εξής.
Πάρ΄τε τα λίνκ ή το μονό λίνκ και κατεβάστε το με Browser….Δεξί κλίκ στο λίνκ και άνοιγμα σε νέο παράθυρο…
Θα σας ανοίξει μία καρτελίτσα και εσείς θα πατήσετε αποθήκευση, όχι άνοιγμα…
Αυτόματά το λίνκ θα κατέβει και θα αποθηκευτεί στο φάκελο που εσείς έχετε επιλέξει.

One Response to THE SON OF BIGFOOT / Ο ΓΙΟΣ ΤΟΥ ΜΕΓΑΛΟΠΑΤΟYΣΑ (2017) BRRip.x264 AC3 ~ ΜΕΤΑΓΛΩΤΙΣΜEΝΟ

Αφήστε μια απάντηση

Chat - Μόνο Εγγεγραμμένοι Χρήστες
You must be signed in to post a comment
stamilia
(Σάββατο, Φεβ 10. 2018 03:08 ΜΜ)
καλησπερα!!!!!!!!! μηπως υπαρχει ο ψαλιδοχερης με τον τζονη ντεπ
Edward Scissorhands 1990??
παρακαλώ πολυ!!!!
Mr.Planet: Aνεβηκε σε Micro-HD μικρο μεγεθος υψηλη αναληση.
amarsof
(Παρασκευή, Φεβ 9. 2018 10:38 ΜΜ)
kalispera,exoume neotera epeisodia apo Cardinal??
thanks!!!
Mr.Planet: οχι δεν υπαρχει νεo επεισοδιο.
Mr.Planet
(Κυριακή, Ιαν 28. 2018 11:01 ΜΜ)
Kαλησπερα Gladiatori
Gladiatori
(Κυριακή, Ιαν 28. 2018 10:22 ΜΜ)
καλησπερα
geodelta
(Κυριακή, Ιαν 28. 2018 11:53 ΠΜ)
OK ευχαριστώ

1 · 2