Kατηγορίες

Traffic at a Glance

Pageviews 106.285

Days in Range 30

Average Daily Pageviews 3.543

From Search Results 9.716

Unique IPs 8.459

Last 30 minutes 79

Today 2.241

Yesterday 2.895

COUNTERPART (2018) SEASON 1 – 720p WEB.H264 {ΞΕΧ.ΥΠΟΤ} Episode 2 added

Είδος: Drama, Sci-Fi, Thriller
Δημιουργός: Justin Marks
Πρωταγωνιστές: J.K. Simmons, Harry Lloyd, Nazanin Boniadi
Κανάλι: Starz (USA)
Πρεμιέρα: 10 Δεκεμβρίου 2017
Επεισόδια: 10
iMDB: http://www.imdb.com/title/tt4643084/

Υπόθεση

Ένας υπάλληλος σε κατασκοπικό branch των Ηνωμένων Εθνών στο Βερολίνο ανακαλύπτει τη συγκάλυψη μιας παράλληλης διάστασης (και του παράλληλου εαυτού του) που προκλήθηκε από ένα πείραμα του Ψυχρού Πολέμου.

Spoiler:

Complete name : counterpart.s01e01.720p.web.h264-strife.mkv
Format : Matroska
Format version : Version 4 / Version 2
File size : 1.01 GiB
Duration : 56 min 37 s
Overall bit rate mode : Variable
Overall bit rate : 2 546 kb/s
Encoded date : UTC 2017-12-10 07:13:53
Writing application : mkvmerge v11.0.0 (‘Alive’) 64bit
Writing library : libebml v1.3.4 + libmatroska v1.4.5

Video
ID : 1
Format : AVC
Format/Info : Advanced Video Codec
Format profile : [email protected]
Format settings, CABAC : Yes
Format settings, RefFrames : 5 frames
Codec ID : V_MPEG4/ISO/AVC
Duration : 56 min 37 s
Bit rate mode : Variable
Bit rate : 1 904 kb/s
Maximum bit rate : 4 500 kb/s
Width : 1 280 pixels
Height : 720 pixels
Display aspect ratio : 16:9
Frame rate mode : Constant
Frame rate : 23.976 (24000/1001) FPS
Color space : YUV
Chroma subsampling : 4:2:0
Bit depth : 8 bits
Scan type : Progressive
Bits/(Pixel*Frame) : 0.086
Stream size : 771 MiB (75%)
Language : English
Default : Yes
Forced : No
Color range : Limited
Color primaries : BT.709
Transfer characteristics : BT.709
Matrix coefficients : BT.709

Audio
ID : 2
Format : E-AC-3
Format/Info : Enhanced Audio Coding 3
Format settings, Endianness : Big
Codec ID : A_EAC3
Duration : 56 min 37 s
Bit rate mode : Constant
Bit rate : 640 kb/s
Channel(s) : 6 channels
Channel positions : Front: L C R, Side: L R, LFE
Sampling rate : 48.0 kHz
Frame rate : 187.500 FPS (256 SPF)
Compression mode : Lossy
Delay relative to video : 27 ms
Stream size : 259 MiB (25%)
Language : English
Service kind : Complete Main
Default : Yes
Forced : No

Text
ID : 3
Format : UTF-8
Codec ID : S_TEXT/UTF8
Codec ID/Info : UTF-8 Plain Text
Duration : 55 min 14 s
Bit rate : 49 b/s
Count of elements : 760
Stream size : 20.1 KiB (0%)
Language : English
Default : No
Forced : No


ΑΝ ΣΑΣ ΑΡΕΣΕΙ Η ΔΟΥΛΕΙΑ ΜΟΥ ΚΑΙ ΘΕΛΕΤΕ ΝΑ ΜΕ ΣΤΗΡΙΞΕΤΕ,
ΚΑΝΤΕ ΕΝΑ ΛΟΓΑΡΙΑΣΜΟ ΓΙΑ EASYBYTEZ & UPLOADED
ΚΑΙ ΚΑΤΕΒΑΣΤΕ ΣΑΝ PREMIUM ΑΠΟ 20 ΔΙΑΦΟΡΕΤΙΚΟΥΣ HOST.

EasyBytez Premium Accounts

Για Uploaded απο Εδώ. http://ul.to/ref/3276399


Links Easybytez & Uploaded

Spoiler:

https://paste2.org/KHvOAZwG

Αγαπητοί φίλοι πολλές φορές ίσως σε κάποια λίνκ σας βγάζει «Server error»
η προβληματικός πάροχος η σφάλμα plugin έχει λήξει.
Αυτό δεν σημαίνει απαραίτητα ότι τα λίνκ είναι νεκρά. Δοκιμάστε το εξής.
Πάρ΄τε τα λίνκ ή το μονό λίνκ και κατεβάστε το με Browser….Δεξί κλίκ στο λίνκ και άνοιγμα σε νέο παράθυρο…
Θα σας ανοίξει μία καρτελίτσα και εσείς θα πατήσετε αποθήκευση, όχι άνοιγμα…
Αυτόματά το λίνκ θα κατέβει και θα αποθηκευτεί στο φάκελο που εσείς έχετε επιλέξει.

One Response to COUNTERPART (2018) SEASON 1 – 720p WEB.H264 {ΞΕΧ.ΥΠΟΤ} Episode 2 added

Αφήστε μια απάντηση

Chat - Μόνο Εγγεγραμμένοι Χρήστες
You must be signed in to post a comment
stamilia
(Σάββατο, Φεβ 10. 2018 03:08 ΜΜ)
καλησπερα!!!!!!!!! μηπως υπαρχει ο ψαλιδοχερης με τον τζονη ντεπ
Edward Scissorhands 1990??
παρακαλώ πολυ!!!!
Mr.Planet: Aνεβηκε σε Micro-HD μικρο μεγεθος υψηλη αναληση.
amarsof
(Παρασκευή, Φεβ 9. 2018 10:38 ΜΜ)
kalispera,exoume neotera epeisodia apo Cardinal??
thanks!!!
Mr.Planet: οχι δεν υπαρχει νεo επεισοδιο.
Mr.Planet
(Κυριακή, Ιαν 28. 2018 11:01 ΜΜ)
Kαλησπερα Gladiatori
Gladiatori
(Κυριακή, Ιαν 28. 2018 10:22 ΜΜ)
καλησπερα
geodelta
(Κυριακή, Ιαν 28. 2018 11:53 ΠΜ)
OK ευχαριστώ

1 · 2