Kατηγορίες

TRAMPS (2016) HDRip XviD AC3-EVO {ΕΝΣΩΜ.ΥΠΟΤ}

 

Είδος Ταινίας: Comedy, Romance
Ελληνική Πρεμιέρα: 21 April 2017 (USA)
Σκηνοθέτης: Adam Leon
Ηθοποιοί: Callum Turner, Grace Van Patten, Michal Vondel
Υπότιτλοι: Eλληνικοί, Ενσωματωμένοι
Mετάφραση: Νίκος Μανουσάκης
iMDB: http://www.imdb.com/title/tt4991512/

Υπόθεση

Ο νεαρός Danny εργάζεται σκληρά για να τα φέρει βόλτα. Ζει με τη μητέρα και τον αδερφό του που έχει προβλήματα με το νόμο σε μια πολωνική γειτονιά στο Queens της Νέας Υόρκης. Η Ellie που από μικρή κινείται στο κόσμο των μικροαπατεώνων επιστρέφει στη Νέα Υόρκη για να κάνει μια χάρη στο παλιό της αίσθημα και να βγάλει κι αυτή ένα χαρτζιλίκι. Ο Danny λαμβάνει ένα τηλεφώνημα από τον αδερφό του που βρέθηκε στη φυλακή και του ζητάει να τον αντικαταστήσει σε μια «δουλειά». Όλα φαίνονται αρκετά απλά: πρέπει να συναντήσει την Ellie που θα κρατά ένα χαρτοφύλακα και μαζί να προχωρήσουν σε ένα ραντεβού και ανταλλάξουν το χαρτοφύλακα με ένα άλλο. Όταν όμως ο Danny ανταλλάσσει τυχαία λάθος σάκο, ξεκινά μια διήμερη οδύσσεια για αυτούς τους απίθανους εγκληματίες για να φέρουν πίσω το χαρτοφύλακα που λείπει. Κινούνται στα προάστια της Νέας Υόρκης με τρένο, λεωφορείο, κλεμμένα ποδήλατα, κάνουν διάρρηξη σε ένα σπίτι, προσπαθούν να κρύψουν την ταυτότητά τους και μέσα όλο αυτό το χαμό αρχίζουν να ερωτεύονται ο ένας τον άλλο.

Spoiler:

Format : AVI
Format/Info : Audio Video Interleave
File size : 1.30 GiB
Duration : 1 h 23 min
Overall bit rate : 2 248 kb/s
Writing application : VirtualDubMod 1.5.10.2 (build 2542/release)
Writing library : VirtualDubMod build 2542/release

Video
ID : 0
Format : MPEG-4 Visual
Format profile : Advanced [email protected]
Format settings : BVOP1
Format settings, BVOP : 1
Format settings, QPel : No
Format settings, GMC : No warppoints
Format settings, Matrix : Default (H.263)
Muxing mode : Packed bitstream
Codec ID : XVID
Codec ID/Hint : XviD
Duration : 1 h 23 min
Bit rate : 2 049 kb/s
Width : 720 pixels
Height : 432 pixels
Display aspect ratio : 5:3
Frame rate : 23.976 (24000/1001) FPS
Color space : YUV
Chroma subsampling : 4:2:0
Bit depth : 8 bits
Scan type : Progressive
Compression mode : Lossy
Bits/(Pixel*Frame) : 0.275
Stream size : 1.19 GiB (91%)
Writing library : XviD 64

Audio
ID : 1
Format : AC-3
Format/Info : Audio Coding 3
Codec ID : 2000
Duration : 1 h 23 min
Bit rate mode : Constant
Bit rate : 192 kb/s
Channel(s) : 2 channels
Channel positions : Front: L R
Sampling rate : 48.0 kHz
Frame rate : 31.250 FPS (1536 SPF)
Bit depth : 16 bits
Compression mode : Lossy
Stream size : 114 MiB (9%)
Alignment : Split accross interleaves
Interleave, duration : 64 ms (1.53 video frames)
Interleave, preload duration : 500 ms
Service kind : Complete Main


ΑΝ ΣΑΣ ΑΡΕΣΕΙ Η ΔΟΥΛΕΙΑ ΜΟΥ ΚΑΙ ΘΕΛΕΤΕ ΝΑ ΜΕ ΣΤΗΡΙΞΕΤΕ,
ΚΑΝΤΕ ΕΝΑ ΛΟΓΑΡΙΑΣΜΟ ΓΙΑ EASYBYTEZ & UPLOADED
ΚΑΙ ΚΑΤΕΒΑΣΤΕ ΣΑΝ PREMIUM ΑΠΟ 20 ΔΙΑΦΟΡΕΤΙΚΟΥΣ HOST.

EasyBytez Premium Accounts

Για Uploaded απο Εδώ. http://ul.to/ref/3276399


Links Easybytez & Uploaded

Spoiler:

https://paste2.org/CwtJ6d7W

https://pastebin.com/2PHWfMr1

Αγαπητοί φίλοι πολλές φορές ίσως σε κάποια λίνκ σας βγάζει «Server error»
η προβληματικός πάροχος η σφάλμα plugin έχει λήξει.
Αυτό δεν σημαίνει απαραίτητα ότι τα λίνκ είναι νεκρά. Δοκιμάστε το εξής.
Πάρ΄τε τα λίνκ ή το μονό λίνκ και κατεβάστε το με Browser….Δεξί κλίκ στο λίνκ και άνοιγμα σε νέο παράθυρο…
Θα σας ανοίξει μία καρτελίτσα και εσείς θα πατήσετε αποθήκευση, όχι άνοιγμα…
Αυτόματά το λίνκ θα κατέβει και θα αποθηκευτεί στο φάκελο που εσείς έχετε επιλέξει.

Αφήστε μια απάντηση

Chat - Μόνο Εγγεγραμμένοι Χρήστες
You must be signed in to post a comment
takisbol
(Παρασκευή, Μαΐ 18. 2018 05:52 ΜΜ)
εστω και καθυστερημένα, ευχαριστώ πολύ Mr. Planet
Mr.Planet
(Πέμπτη, Μαΐ 17. 2018 03:33 ΜΜ)
takisbol.
Aνεβηκαν νεα λινκς.
takisbol
(Τρίτη, Μαΐ 15. 2018 09:20 ΜΜ)
COLONY (2016-2018) SEASONS 1-3 {ενσωμ.υποτ} Episode 302 added
τα λινκς δεν υπάρχουν
stamilia
(Δευτέρα, Μαΐ 14. 2018 07:29 ΜΜ)
ευχαριστω πολυ!!!!
Mr.Planet
(Δευτέρα, Μαΐ 14. 2018 02:06 ΜΜ)
stamilia
ανεβηκαν νεα λινκς.

1 · 2 · 3 · 4 · 5