Kατηγορίες

Traffic at a Glance

Pageviews 105.700

Days in Range 30

Average Daily Pageviews 3.523

From Search Results 9.665

Unique IPs 8.393

Last 30 minutes 80

Today 1.656

Yesterday 2.895

HALLOWEEN PUSSY TRAP KILL KILL (2017) HDRip XviD AC3-EVO {ΕΝΣΩΜ.ΥΠΟΤ}

 

Είδος Ταινίας: Horror
Ελληνική Πρεμιέρα: 27 October 2017 (USA)
Σκηνοθέτης: Jared Cohn
Σενάριο: Jared Cohn
Ηθοποιοί: Richard Grieco, Sara Malakul Lane, Margaret O’Brien
Υπότιτλοι: Eλληνικοί, Ενσωματωμένοι
Mετάφραση: Alex Suri GR
iMDB: http://www.imdb.com/title/tt7493366/

Υπόθεση

Τα μέλη του γυναικείου punk rock συγκροτήματος «Kill, Pussy, Kill!» πρέπει να αγωνιστούν για τη ζωή τους και να νικήσουν έναν άγνωστο δράστη που τους παγιδεύει σε έναν λαβύρινθο θανάτου.

Spoiler:

Format : AVI
Format/Info : Audio Video Interleave
File size : 1.33 GiB
Duration : 1 h 22 min
Overall bit rate : 2 301 kb/s
Writing application : VirtualDubMod 1.5.10.2 (build 2542/release)
Writing library : VirtualDubMod build 2542/release

Video
ID : 0
Format : MPEG-4 Visual
Format profile : Advanced [email protected]
Format settings : BVOP1
Format settings, BVOP : 1
Format settings, QPel : No
Format settings, GMC : No warppoints
Format settings, Matrix : Default (H.263)
Muxing mode : Packed bitstream
Codec ID : XVID
Codec ID/Hint : XviD
Duration : 1 h 22 min
Bit rate : 1 909 kb/s
Width : 720 pixels
Height : 304 pixels
Display aspect ratio : 2.35:1
Frame rate : 23.976 (24000/1001) FPS
Color space : YUV
Chroma subsampling : 4:2:0
Bit depth : 8 bits
Scan type : Progressive
Compression mode : Lossy
Bits/(Pixel*Frame) : 0.364
Stream size : 1.10 GiB (83%)
Writing library : XviD 64

Audio
ID : 1
Format : AC-3
Format/Info : Audio Coding 3
Codec ID : 2000
Duration : 1 h 22 min
Bit rate mode : Constant
Bit rate : 384 kb/s
Channel(s) : 6 channels
Channel positions : Front: L C R, Side: L R, LFE
Sampling rate : 48.0 kHz
Frame rate : 31.250 FPS (1536 SPF)
Bit depth : 16 bits
Compression mode : Lossy
Stream size : 227 MiB (17%)
Alignment : Split accross interleaves
Interleave, duration : 64 ms (1.53 video frames)
Interleave, preload duration : 500 ms
Service kind : Complete Main


ΑΝ ΣΑΣ ΑΡΕΣΕΙ Η ΔΟΥΛΕΙΑ ΜΟΥ ΚΑΙ ΘΕΛΕΤΕ ΝΑ ΜΕ ΣΤΗΡΙΞΕΤΕ,
ΚΑΝΤΕ ΕΝΑ ΛΟΓΑΡΙΑΣΜΟ ΓΙΑ EASYBYTEZ & UPLOADED
ΚΑΙ ΚΑΤΕΒΑΣΤΕ ΣΑΝ PREMIUM ΑΠΟ 20 ΔΙΑΦΟΡΕΤΙΚΟΥΣ HOST.

EasyBytez Premium Accounts

Για Uploaded απο Εδώ. http://ul.to/ref/3276399


Links Easybytez & Uploaded

Spoiler:

https://paste2.org/vJgFDGj2

https://pastebin.com/vrcbJA1q

Αγαπητοί φίλοι πολλές φορές ίσως σε κάποια λίνκ σας βγάζει «Server error»
η προβληματικός πάροχος η σφάλμα plugin έχει λήξει.
Αυτό δεν σημαίνει απαραίτητα ότι τα λίνκ είναι νεκρά. Δοκιμάστε το εξής.
Πάρ΄τε τα λίνκ ή το μονό λίνκ και κατεβάστε το με Browser….Δεξί κλίκ στο λίνκ και άνοιγμα σε νέο παράθυρο…
Θα σας ανοίξει μία καρτελίτσα και εσείς θα πατήσετε αποθήκευση, όχι άνοιγμα…
Αυτόματά το λίνκ θα κατέβει και θα αποθηκευτεί στο φάκελο που εσείς έχετε επιλέξει.

Αφήστε μια απάντηση

Chat - Μόνο Εγγεγραμμένοι Χρήστες
You must be signed in to post a comment
stamilia
(Σάββατο, Φεβ 10. 2018 03:08 ΜΜ)
καλησπερα!!!!!!!!! μηπως υπαρχει ο ψαλιδοχερης με τον τζονη ντεπ
Edward Scissorhands 1990??
παρακαλώ πολυ!!!!
Mr.Planet: Aνεβηκε σε Micro-HD μικρο μεγεθος υψηλη αναληση.
amarsof
(Παρασκευή, Φεβ 9. 2018 10:38 ΜΜ)
kalispera,exoume neotera epeisodia apo Cardinal??
thanks!!!
Mr.Planet: οχι δεν υπαρχει νεo επεισοδιο.
Mr.Planet
(Κυριακή, Ιαν 28. 2018 11:01 ΜΜ)
Kαλησπερα Gladiatori
Gladiatori
(Κυριακή, Ιαν 28. 2018 10:22 ΜΜ)
καλησπερα
geodelta
(Κυριακή, Ιαν 28. 2018 11:53 ΠΜ)
OK ευχαριστώ

1 · 2