Kατηγορίες

LADY BIRD / ΠΑΣΧΑΛΙΤΣΑ (2017) HDRip XviD AC3-EVO {ΕΝΣΩΜ.ΥΠΟΤ} ΝΕΑ ΠΟΙΟΤΗΤΑ

 

Είδος Ταινίας: Κωμωδία, Δράμα
Ελληνική Πρεμιέρα: 1 Μαρτίου 2018
Σκηνοθέτης: Greta Gerwig
Σενάριο: Greta Gerwig
Ηθοποιοί: Saoirse Ronan, Laurie Metcalf, Tracy Letts
Υπότιτλοι: Eλληνικοί, Ενσωματωμένοι
Mετάφραση: Serafino
iMDB: http://www.imdb.com/title/tt4925292/

Υπόθεση

Η Κριστίν ΜακΦέρσον, στοργικά ονομαζόμενη, αλλά και αυτοαποκαλούμενη «Πασχαλίτσα», είναι μια φιλόδοξη, λαμπρή και πρώιμα ανεπτυγμένη τελειόφοιτος του σχολείου. Αναζητώντας να απελευθερωθεί από τα προάστια του Σακραμέντο, ονειρεύεται μια διαφορετική ζωή γεμάτη ουρανοξύστες της ανατολικής ακτής, μεγάλα πανεπιστήμια και κοσμοπολίτικη ζωή. Αλλά οι βαθμοί της δεν είναι οι πιο υψηλοί και δεν έχει καμία σημαντική διασύνδεση, κι έτσι η Λαίδη Μπερντ πρέπει να εκμεταλλευτεί τις εξωσχολικές της δραστηριότητες για να συνεχίσει να ονειρεύεται το κολέγιο. Μπαίνει στη θεατρική ομάδα και εκεί γνωρίζει νέους φίλους, τις πρώτους της έρωτες και μια έντονη δημόσια ζωή. Με τη μητέρα να είναι επικριτική και να εργάζεται διπλές βάρδιες ως νοσοκόμα, τον πατέρα πρόσφατα απολυμένο και τον αδελφό της να έχει βγάλει το Μπέρκλεϊ και να δουλεύει σε σούπερ-μάρκετ, ξέρει ήδη ότι η καλή ζωή μετά το σχολείο δεν είναι ένας απλός περίπατος στο πάρκο.

Spoiler:

Format : AVI
Format/Info : Audio Video Interleave
File size : 1.50 GiB
Duration : 1 h 33 min
Overall bit rate : 2 298 kb/s
Writing application : VirtualDubMod 1.5.10.2 (build 2542/release)
Writing library : VirtualDubMod build 2542/release

Video
ID : 0
Format : MPEG-4 Visual
Format profile : Advanced [email protected]
Format settings : BVOP1
Format settings, BVOP : 1
Format settings, QPel : No
Format settings, GMC : No warppoints
Format settings, Matrix : Default (H.263)
Muxing mode : Packed bitstream
Codec ID : XVID
Codec ID/Hint : XviD
Duration : 1 h 33 min
Bit rate : 1 906 kb/s
Width : 720 pixels
Height : 384 pixels
Display aspect ratio : 1.85:1
Frame rate : 23.976 (24000/1001) FPS
Color space : YUV
Chroma subsampling : 4:2:0
Bit depth : 8 bits
Scan type : Progressive
Compression mode : Lossy
Bits/(Pixel*Frame) : 0.288
Stream size : 1.25 GiB (83%)
Writing library : XviD 64

Audio
ID : 1
Format : AC-3
Format/Info : Audio Coding 3
Codec ID : 2000
Duration : 1 h 33 min
Bit rate mode : Constant
Bit rate : 384 kb/s
Channel(s) : 6 channels
Channel positions : Front: L C R, Side: L R, LFE
Sampling rate : 48.0 kHz
Frame rate : 31.250 FPS (1536 SPF)
Bit depth : 16 bits
Compression mode : Lossy
Stream size : 257 MiB (17%)
Alignment : Split accross interleaves
Interleave, duration : 64 ms (1.53 video frames)
Interleave, preload duration : 500 ms
Service kind : Complete Main


ΑΝ ΣΑΣ ΑΡΕΣΕΙ Η ΔΟΥΛΕΙΑ ΜΟΥ ΚΑΙ ΘΕΛΕΤΕ ΝΑ ΜΕ ΣΤΗΡΙΞΕΤΕ,
ΚΑΝΤΕ ΕΝΑ ΛΟΓΑΡΙΑΣΜΟ ΓΙΑ EASYBYTEZ & UPLOADED
ΚΑΙ ΚΑΤΕΒΑΣΤΕ ΣΑΝ PREMIUM ΑΠΟ 20 ΔΙΑΦΟΡΕΤΙΚΟΥΣ HOST.

EasyBytez Premium Accounts

Για Uploaded απο Εδώ. http://ul.to/ref/3276399


Links Easybytez & Uploaded

Spoiler:

https://paste2.org/2hppA4dz

https://pastebin.com/p0ArHUUf

Αγαπητοί φίλοι πολλές φορές ίσως σε κάποια λίνκ σας βγάζει «Server error»
η προβληματικός πάροχος η σφάλμα plugin έχει λήξει.
Αυτό δεν σημαίνει απαραίτητα ότι τα λίνκ είναι νεκρά. Δοκιμάστε το εξής.
Πάρ΄τε τα λίνκ ή το μονό λίνκ και κατεβάστε το με Browser….Δεξί κλίκ στο λίνκ και άνοιγμα σε νέο παράθυρο…
Θα σας ανοίξει μία καρτελίτσα και εσείς θα πατήσετε αποθήκευση, όχι άνοιγμα…
Αυτόματά το λίνκ θα κατέβει και θα αποθηκευτεί στο φάκελο που εσείς έχετε επιλέξει.

Αφήστε μια απάντηση

Chat - Μόνο Εγγεγραμμένοι Χρήστες
You must be signed in to post a comment
takisbol
(Παρασκευή, Μαΐ 18. 2018 05:52 ΜΜ)
εστω και καθυστερημένα, ευχαριστώ πολύ Mr. Planet
Mr.Planet
(Πέμπτη, Μαΐ 17. 2018 03:33 ΜΜ)
takisbol.
Aνεβηκαν νεα λινκς.
takisbol
(Τρίτη, Μαΐ 15. 2018 09:20 ΜΜ)
COLONY (2016-2018) SEASONS 1-3 {ενσωμ.υποτ} Episode 302 added
τα λινκς δεν υπάρχουν
stamilia
(Δευτέρα, Μαΐ 14. 2018 07:29 ΜΜ)
ευχαριστω πολυ!!!!
Mr.Planet
(Δευτέρα, Μαΐ 14. 2018 02:06 ΜΜ)
stamilia
ανεβηκαν νεα λινκς.

1 · 2 · 3 · 4 · 5