Kατηγορίες

Traffic at a Glance

Pageviews 80.845

Days in Range 30

Average Daily Pageviews 2.695

From Search Results 7.173

Unique IPs 8.225

Last 30 minutes 64

Today 774

Yesterday 3.240

BEAST OF BURDEN (2018) BluRay 720p DTS x264-MTeam {ΞΕΧΩΡ.ΥΠΟΤ}

 

Είδος Ταινίας: Action, Crime, Drama
Πρεμιέρα: 23 February 2018 (USA)
Σκηνοθέτης: Jesper Ganslandt
Σενάριο: Adam Hoelzel
Ηθοποιοί: Daniel Radcliffe, Grace Gummer, Pablo Schreiber
Μετάφραση: serafino
iMDB: http://www.imdb.com/title/tt6170506/

ΥΠΟΘΕΣΗ

Ο πιλότος Sean Haggerty (Daniel Radcliffe) αναγκάζεται να διακινήσει κοκαΐνη από τα σύνορα ΗΠΑ-Μεξικού ώστε να βρει τα χρήματα για σώσει την άρρωστη σύζυγό του. Κατά τη διάρκεια της πτήσης όμως γίνεται αντιληπτός από τις αρχές, και θα πρέπει να αποφασίσει αν θα μείνει πιστός στο καρτέλ που απειλούν τον ίδιο και την οικογένειά του ή θα εμπιστευθεί την συμφωνία που του προτείνει η Δίωξη Ναρκωτικών.

Spoiler:

Beast.of.Burden.2018.BluRay.720p.DTS.x264-MTeam.mkv
Format : Matroska
Format version : Version 4 / Version 2
File size : 5.75 GiB
Duration : 1h 29mn
Overall bit rate : 9 179 Kbps
Encoded date : UTC 2018-03-20 15:41:27
Writing application : mkvmerge v9.2.0 (‘Photograph’) 64bit
Writing library : libebml v1.3.3 + libmatroska v1.4.4
DURATION : 01:29:42.048000000
NUMBER_OF_FRAMES : 504567
NUMBER_OF_BYTES : 1015188872
_STATISTICS_WRITING_APP : mkvmerge v9.2.0 (‘Photograph’) 64bit
_STATISTICS_WRITING_DATE_UTC : 2018-03-20 15:41:27
_STATISTICS_TAGS : BPS DURATION NUMBER_OF_FRAMES NUMBER_OF_BYTES

Video
ID : 1
Format : AVC
Format/Info : Advanced Video Codec
Format profile : High@L4.1
Format settings, CABAC : Yes
Format settings, ReFrames : 12 frames
Codec ID : V_MPEG4/ISO/AVC
Duration : 1h 29mn
Bit rate : 7 487 Kbps
Width : 1 280 pixels
Height : 534 pixels
Display aspect ratio : 2.40:1
Frame rate : 23.976 fps
Color space : YUV
Chroma subsampling : 4:2:0
Bit depth : 8 bits
Scan type : Progressive
Bits/(Pixel*Frame) : 0.457
Stream size : 4.69 GiB (82%)

Audio
ID : 2
Format : DTS
Format/Info : Digital Theater Systems
Codec ID : A_DTS
Duration : 1h 29mn
Bit rate mode : Constant
Bit rate : 1 510 Kbps
Channel(s) : 6 channels
Channel positions : Front: L C R, Side: L R, LFE
Sampling rate : 48.0 KHz
Bit depth : 16 bits
Compression mode : Lossy
Stream size : 969 MiB (16%)


ΑΝ ΣΑΣ ΑΡΕΣΕΙ Η ΔΟΥΛΕΙΑ ΜΟΥ ΚΑΙ ΘΕΛΕΤΕ ΝΑ ΜΕ ΣΤΗΡΙΞΕΤΕ,
ΚΑΝΤΕ ΕΝΑ ΛΟΓΑΡΙΑΣΜΟ ΓΙΑ EASYBYTEZ & UPLOADED
ΚΑΙ ΚΑΤΕΒΑΣΤΕ ΣΑΝ PREMIUM ΑΠΟ 20 ΔΙΑΦΟΡΕΤΙΚΟΥΣ HOST.

EasyBytez Premium Accounts

Για Uploaded απο Εδώ. http://ul.to/ref/3276399


Links Easybytez & Uploaded

Spoiler:

https://paste2.org/NeOJKbpb

 

Αγαπητοί φίλοι πολλές φορές ίσως σε κάποια λίνκ σας βγάζει «Server error»
η προβληματικός πάροχος η σφάλμα plugin έχει λήξει.
Αυτό δεν σημαίνει απαραίτητα ότι τα λίνκ είναι νεκρά. Δοκιμάστε το εξής.
Πάρ΄τε τα λίνκ ή το μονό λίνκ και κατεβάστε το με Browser….Δεξί κλίκ στο λίνκ και άνοιγμα σε νέο παράθυρο…
Θα σας ανοίξει μία καρτελίτσα και εσείς θα πατήσετε αποθήκευση, όχι άνοιγμα…
Αυτόματά το λίνκ θα κατέβει και θα αποθηκευτεί στο φάκελο που εσείς έχετε επιλέξει.

Αφήστε μια απάντηση

Chat - Μόνο Εγγεγραμμένοι Χρήστες
You must be signed in to post a comment
Mr.Planet
(Πέμπτη, Απρ 19. 2018 03:51 ΜΜ)
μη χασει κανεις την ταινια RED SPARROW (2018) μακαρι να εβγαιναν τετειες ταινιες πιο συχνα!
Mr.Planet
(Τρίτη, Απρ 17. 2018 11:15 ΜΜ)
kost36 τωρα ειναι οκ, σε ευχαριστω.
kost36
(Τρίτη, Απρ 17. 2018 09:55 ΜΜ)
στο easybytez υπάρχουν μόνον τα parts 3,4 & 5 ενώ στο upload τα 1, 2 &3
ευχαριστώ
Mr.Planet
(Τρίτη, Απρ 17. 2018 09:29 ΠΜ)
καλημερα ntari22 σε ευχαριστω θα τοκοιταξω.
Mr.Planet
(Τρίτη, Απρ 17. 2018 09:28 ΠΜ)
Kαλημερα kost36. σαν τι μπερδεμα?

1 · 2 · 3 · 4 · 5