Kατηγορίες

Traffic at a Glance

Pageviews 80.335

Days in Range 30

Average Daily Pageviews 2.678

From Search Results 7.122

Unique IPs 8.139

Last 30 minutes 7

Today 263

Yesterday 3.240

BRAD’S STATUS (2017) 720p Blu-ray AC-3 {ΞΕΧΩΡ.ΥΠΟΤ}

ΣΚΗΝΟΘΕΣΙΑ : Mike White
ΣΕΝΑΡΙΟ : Mike White
ΗΘΟΠΟΙΟΙ : Ben Stiller, Austin Abrams, Jenna Fischer
ΕΙΔΟΣ : Comedy, Drama, Music
ΠΡΕΜΙΕΡΑ : 19 October 2017 (Greece)
ΜΕΤΑΦΡΑΣΗ : Calamity Jane
iMDB: https://www.imdb.com/title/tt5884230/

ΥΠΟΘΕΣΗ

Ο 47χρονος Μπραντ, ο οποίος δουλεύει σε έναν Μη Κυβερνητικό Οργανισμό, ταξιδεύει από την Καλιφόρνια στη Βοστόνη για να συνοδεύσει τον υποψήφιο για το Χάρβαρντ γιο του στην κρίσιμη συνέντευξή του. Οι ημέρες που θα περάσουν μαζί θα τον κάνουν να επιστρέψει στο παρελθόν και να κάνει ένα γλυκόπικρο απολογισμό της ζωής του.

Spoiler:

Format : Matroska
Format version : Version 4 / Version 2
File size : 6.71 GiB
Duration : 1h 41mn
Overall bit rate : 9 427 Kbps
Encoded date : UTC 2017-12-28 08:29:06
Writing application : mkvmerge v8.2.0 (‘World of Adventure’) 64bit
Writing library : libebml v1.3.1 + libmatroska v1.4.2
DURATION : 01:41:57.792000000
NUMBER_OF_FRAMES : 191181
NUMBER_OF_BYTES : 489423360
_STATISTICS_WRITING_APP : mkvmerge v8.2.0 (‘World of Adventure’) 64bit
_STATISTICS_WRITING_DATE_UTC : 2017-12-28 08:29:06
_STATISTICS_TAGS : BPS DURATION NUMBER_OF_FRAMES NUMBER_OF_BYTES

Video
ID : 1
Format : AVC
Format/Info : Advanced Video Codec
Format profile : High@L4.1
Format settings, CABAC : Yes
Format settings, ReFrames : 10 frames
Codec ID : V_MPEG4/ISO/AVC
Duration : 1h 41mn
Bit rate : 8 600 Kbps
Width : 1 280 pixels
Height : 638 pixels
Display aspect ratio : 2.006
Frame rate mode : Constant
Frame rate : 23.976 fps
Color space : YUV
Chroma subsampling : 4:2:0
Bit depth : 8 bits
Scan type : Progressive
Bits/(Pixel*Frame) : 0.439
Stream size : 6.12 GiB (91%)
Writing library : x264 core 152 r2851+58 429492e t_mod_Custom [8-bit@all X86_64]
Encoding settings : cabac=1 / ref=10 / deblock=1:-3:-3 / analyse=0x3:0x133 / me=umh / subme=10 / psy=1 / fade_compensate=0.00 / psy_rd=1.05:0.00 / mixed_ref=1 / me_range=24 / chroma_me=1 / trellis=2 / 8x8dct=1 / cqm=0 / deadzone=21,11 / fast_pskip=0 / chroma_qp_offset=-2 / threads=20 / lookahead_threads=4 / sliced_threads=0 / nr=0 / decimate=0 / interlaced=0 / bluray_compat=0 / constrained_intra=0 / fgo=0 / bframes=10 / b_pyramid=2 / b_adapt=2 / b_bias=0 / direct=3 / weightb=1 / open_gop=0 / weightp=2 / keyint=250 / keyint_min=23 / scenecut=40 / intra_refresh=0 / rc_lookahead=60 / rc=crf / mbtree=0 / crf=16.2000 / qcomp=0.60 / qpmin=0:0:0 / qpmax=69:69:69 / qpstep=4 / vbv_maxrate=62500 / vbv_bufsize=78125 / crf_max=0.0 / nal_hrd=none / filler=0 / ip_ratio=1.30 / pb_ratio=1.20 / aq=3:0.78 / aq-sensitivity=10.00 / aq-factor=1.00:1.00:1.00 / aq2=0 / aq3=0 / zones=506,804,crf=13/5530,5607,crf=13.5/136507,136693,crf=13.5/137153,137261,crf=13.5/137262,143209,b=0.2/143233,146678,b=0.6
Default : Yes
Forced : No
DURATION : 01:41:57.779000000
NUMBER_OF_FRAMES : 146680
NUMBER_OF_BYTES : 6718343048
_STATISTICS_WRITING_APP : mkvmerge v8.2.0 (‘World of Adventure’) 64bit
_STATISTICS_WRITING_DATE_UTC : 2017-12-28 08:29:06
_STATISTICS_TAGS : BPS DURATION NUMBER_OF_FRAMES NUMBER_OF_BYTES

Audio
ID : 2
Format : AC-3
Format/Info : Audio Coding 3
Mode extension : CM (complete main)
Format settings, Endianness : Big
Codec ID : A_AC3
Duration : 1h 41mn
Bit rate mode : Constant
Bit rate : 640 Kbps
Channel(s) : 6 channels
Channel positions : Front: L C R, Side: L R, LFE
Sampling rate : 48.0 KHz
Bit depth : 16 bits
Compression mode : Lossy
Stream size : 467 MiB (7%)
Language : English
Default : Yes
Forced : No


ΑΝ ΣΑΣ ΑΡΕΣΕΙ Η ΔΟΥΛΕΙΑ ΜΟΥ ΚΑΙ ΘΕΛΕΤΕ ΝΑ ΜΕ ΣΤΗΡΙΞΕΤΕ,
ΚΑΝΤΕ ΕΝΑ ΛΟΓΑΡΙΑΣΜΟ ΓΙΑ EASYBYTEZ & UPLOADED
ΚΑΙ ΚΑΤΕΒΑΣΤΕ ΣΑΝ PREMIUM ΑΠΟ 20 ΔΙΑΦΟΡΕΤΙΚΟΥΣ HOST.

EasyBytez Premium Accounts

Για Uploaded απο Εδώ. http://ul.to/ref/3276399


Links Easybytez & Uploaded

Spoiler:

https://paste2.org/xVJgxmgE

 

Αγαπητοί φίλοι πολλές φορές ίσως σε κάποια λίνκ σας βγάζει «Server error»
η προβληματικός πάροχος η σφάλμα plugin έχει λήξει.
Αυτό δεν σημαίνει απαραίτητα ότι τα λίνκ είναι νεκρά. Δοκιμάστε το εξής.
Πάρ΄τε τα λίνκ ή το μονό λίνκ και κατεβάστε το με Browser….Δεξί κλίκ στο λίνκ και άνοιγμα σε νέο παράθυρο…
Θα σας ανοίξει μία καρτελίτσα και εσείς θα πατήσετε αποθήκευση, όχι άνοιγμα…
Αυτόματά το λίνκ θα κατέβει και θα αποθηκευτεί στο φάκελο που εσείς έχετε επιλέξει.

Αφήστε μια απάντηση

Chat - Μόνο Εγγεγραμμένοι Χρήστες
You must be signed in to post a comment
Mr.Planet
(Πέμπτη, Απρ 19. 2018 03:51 ΜΜ)
μη χασει κανεις την ταινια RED SPARROW (2018) μακαρι να εβγαιναν τετειες ταινιες πιο συχνα!
Mr.Planet
(Τρίτη, Απρ 17. 2018 11:15 ΜΜ)
kost36 τωρα ειναι οκ, σε ευχαριστω.
kost36
(Τρίτη, Απρ 17. 2018 09:55 ΜΜ)
στο easybytez υπάρχουν μόνον τα parts 3,4 & 5 ενώ στο upload τα 1, 2 &3
ευχαριστώ
Mr.Planet
(Τρίτη, Απρ 17. 2018 09:29 ΠΜ)
καλημερα ntari22 σε ευχαριστω θα τοκοιταξω.
Mr.Planet
(Τρίτη, Απρ 17. 2018 09:28 ΠΜ)
Kαλημερα kost36. σαν τι μπερδεμα?

1 · 2 · 3 · 4 · 5