Kατηγορίες

Traffic at a Glance

Pageviews 81.091

Days in Range 30

Average Daily Pageviews 2.703

From Search Results 7.186

Unique IPs 8.257

Last 30 minutes 54

Today 1.019

Yesterday 3.240

MADAME (2017) BRRip XviD AC3-XVID {ΕΝΣΩΜ.ΥΠΟΤ} ΝΕΑ ΠΟΙΟΤΗΤΑ

ΣΚΗΝΟΘΕΣΙΑ : Amanda Sthers
ΣΕΝΑΡΙΟ : Amanda Sthers
ΗΘΟΠΟΙΟΙ : Toni Collette, Harvey Keitel, Rossy de Palma
ΕΙΔΟΣ : Comedy, Drama
ΠΡΕΜΙΕΡΑ : 22 November 2017 (France)
ΜΕΤΑΦΡΑΣΗ : Calamity Jane
iMDB: http://www.imdb.com/title/tt6045466/

Υπόθεση

Η Ανν και ο Μπομπ, ένα πλούσιο ζευγάρι, μετακομίζουν σε ένα αρχοντικό στο ρομαντικό Παρίσι. Κατά την προετοιμασία ενός ιδιαίτερα πολυτελούς δείπνου για τους διεθνείς φίλους τους, η οικοδέσποινα μας αποκαλύπτει πως υπάρχουν δεκατρείς επισκέπτες. Γεμάτη πανικό η Ανν επιμένει, η πιστή της υπηρέτρια, η Μαρία, να μεταμφιεστεί σε μια μυστηριώδη ισπανίδα ευγενή, για να εξισορροπήσει την κατάσταση.

Spoiler:

Format : AVI
Format/Info : Audio Video Interleave
File size : 1.21 GiB
Duration : 1 h 31 min
Overall bit rate : 1 899 kb/s
Writing application : VirtualDubMod 1.5.10.2 (build 2542/release)
Writing library : VirtualDubMod build 2542/release

Video
ID : 0
Format : MPEG-4 Visual
Format profile : Advanced Simple@L5
Format settings, BVOP : 1
Format settings, QPel : No
Format settings, GMC : No warppoints
Format settings, Matrix : Default (H.263)
Muxing mode : Packed bitstream
Codec ID : XVID
Codec ID/Hint : XviD
Duration : 1 h 31 min
Bit rate : 1 443 kb/s
Width : 720 pixels
Height : 304 pixels
Display aspect ratio : 2.35:1
Frame rate : 24.000 FPS
Color space : YUV
Chroma subsampling : 4:2:0
Bit depth : 8 bits
Scan type : Progressive
Compression mode : Lossy
Bits/(Pixel*Frame) : 0.275
Stream size : 944 MiB (76%)
Writing library : XviD 64

Audio
ID : 1
Format : AC-3
Format/Info : Audio Coding 3
Format settings, Endianness : Big
Codec ID : 2000
Duration : 1 h 31 min
Bit rate mode : Constant
Bit rate : 448 kb/s
Channel(s) : 6 channels
Channel positions : Front: L C R, Side: L R, LFE
Sampling rate : 48.0 kHz
Frame rate : 31.250 FPS (1536 spf)
Bit depth : 16 bits
Compression mode : Lossy
Stream size : 293 MiB (24%)
Alignment : Split accross interleaves
Interleave, duration : 64 ms (1.54 video frames)
Interleave, preload duratio : 500 ms
Service kind : Complete Main


ΑΝ ΣΑΣ ΑΡΕΣΕΙ Η ΔΟΥΛΕΙΑ ΜΟΥ ΚΑΙ ΘΕΛΕΤΕ ΝΑ ΜΕ ΣΤΗΡΙΞΕΤΕ,
ΚΑΝΤΕ ΕΝΑ ΛΟΓΑΡΙΑΣΜΟ ΓΙΑ EASYBYTEZ & UPLOADED
ΚΑΙ ΚΑΤΕΒΑΣΤΕ ΣΑΝ PREMIUM ΑΠΟ 20 ΔΙΑΦΟΡΕΤΙΚΟΥΣ HOST.

EasyBytez Premium Accounts

Για Uploaded απο Εδώ. http://ul.to/ref/3276399


Links Easybytez & Uploaded

Spoiler:

https://paste2.org/fX9gf9Of

https://pastebin.com/WwpB5UJA

Αγαπητοί φίλοι πολλές φορές ίσως σε κάποια λίνκ σας βγάζει «Server error»
η προβληματικός πάροχος η σφάλμα plugin έχει λήξει.
Αυτό δεν σημαίνει απαραίτητα ότι τα λίνκ είναι νεκρά. Δοκιμάστε το εξής.
Πάρ΄τε τα λίνκ ή το μονό λίνκ και κατεβάστε το με Browser….Δεξί κλίκ στο λίνκ και άνοιγμα σε νέο παράθυρο…
Θα σας ανοίξει μία καρτελίτσα και εσείς θα πατήσετε αποθήκευση, όχι άνοιγμα…
Αυτόματά το λίνκ θα κατέβει και θα αποθηκευτεί στο φάκελο που εσείς έχετε επιλέξει.

One Response to MADAME (2017) BRRip XviD AC3-XVID {ΕΝΣΩΜ.ΥΠΟΤ} ΝΕΑ ΠΟΙΟΤΗΤΑ

Αφήστε μια απάντηση

Chat - Μόνο Εγγεγραμμένοι Χρήστες
You must be signed in to post a comment
Mr.Planet
(Πέμπτη, Απρ 19. 2018 03:51 ΜΜ)
μη χασει κανεις την ταινια RED SPARROW (2018) μακαρι να εβγαιναν τετειες ταινιες πιο συχνα!
Mr.Planet
(Τρίτη, Απρ 17. 2018 11:15 ΜΜ)
kost36 τωρα ειναι οκ, σε ευχαριστω.
kost36
(Τρίτη, Απρ 17. 2018 09:55 ΜΜ)
στο easybytez υπάρχουν μόνον τα parts 3,4 & 5 ενώ στο upload τα 1, 2 &3
ευχαριστώ
Mr.Planet
(Τρίτη, Απρ 17. 2018 09:29 ΠΜ)
καλημερα ntari22 σε ευχαριστω θα τοκοιταξω.
Mr.Planet
(Τρίτη, Απρ 17. 2018 09:28 ΠΜ)
Kαλημερα kost36. σαν τι μπερδεμα?

1 · 2 · 3 · 4 · 5