Kατηγορίες

Traffic at a Glance

Pageviews 81.020

Days in Range 30

Average Daily Pageviews 2.701

From Search Results 7.183

Unique IPs 8.248

Last 30 minutes 76

Today 948

Yesterday 3.240

FATHER FIGURES (2017) BRRip XviD AC3-XVID {ΕΝΣΩΜ.ΥΠΟΤ}

 

ΣΚΗΝΟΘΕΣΙΑ : Lawrence Sher
ΣΕΝΑΡΙΟ : Justin Malen
ΗΘΟΠΟΙΟΙ : Owen Wilson, Ed Helms, Glenn Close
ΕΙΔΟΣ : Comedy
ΠΡΕΜΙΕΡΑ : 22 December 2017 (USA)
ΜΕΤΑΦΡΑΣΗ : Βασίλης Μανουσάκης
iMDB: https://www.imdb.com/title/tt1966359/

Υπόθεση

Ο Κάιλ και ο Πίτερ είναι δύο αδέλφια που η εκκεντρική τους μητέρα τα μεγάλωσε με το να πιστεύουν ότι ο πατέρας τους πέθανε όταν ήταν πολύ νέοι. Αλλά ήρθε η ώρα που ανακαλύπτουν την αλήθεια και ξεκινάει η μεγάλη αναζήτηση του πατέρα, αλλά την ίδια ώρα θα έρθουν στο φως πράγματα για τη μητέρα τους που ίσως δεν θα ήθελαν ποτέ να ξέρουν..

Spoiler:

Format : AVI
Format/Info : Audio Video Interleave
File size : 1.62 GiB
Duration : 1 h 52 min
Overall bit rate : 2 054 kb/s
Writing application : VirtualDubMod 1.5.10.2 (build 2542/release)
Writing library : VirtualDubMod build 2542/release

Video
ID : 0
Format : MPEG-4 Visual
Format profile : Advanced Simple@L5
Format settings, BVOP : 1
Format settings, QPel : No
Format settings, GMC : No warppoints
Format settings, Matrix : Default (H.263)
Muxing mode : Packed bitstream
Codec ID : XVID
Codec ID/Hint : XviD
Duration : 1 h 52 min
Bit rate : 1 598 kb/s
Width : 720 pixels
Height : 300 pixels
Display aspect ratio : 2.40:1
Frame rate : 23.976 (24000/1001) FPS
Color space : YUV
Chroma subsampling : 4:2:0
Bit depth : 8 bits
Scan type : Progressive
Compression mode : Lossy
Bits/(Pixel*Frame) : 0.309
Stream size : 1.26 GiB (78%)
Writing library : XviD 64

Audio
ID : 1
Format : AC-3
Format/Info : Audio Coding 3
Format settings, Endianness : Big
Codec ID : 2000
Duration : 1 h 52 min
Bit rate mode : Constant
Bit rate : 448 kb/s
Channel(s) : 6 channels
Channel positions : Front: L C R, Side: L R, LFE
Sampling rate : 48.0 kHz
Frame rate : 31.250 FPS (1536 spf)
Bit depth : 16 bits
Compression mode : Lossy
Stream size : 362 MiB (22%)
Alignment : Split accross interleaves
Interleave, duration : 64 ms (1.53 video frames)
Interleave, preload duratio : 500 ms
Service kind : Complete Main


ΑΝ ΣΑΣ ΑΡΕΣΕΙ Η ΔΟΥΛΕΙΑ ΜΟΥ ΚΑΙ ΘΕΛΕΤΕ ΝΑ ΜΕ ΣΤΗΡΙΞΕΤΕ,
ΚΑΝΤΕ ΕΝΑ ΛΟΓΑΡΙΑΣΜΟ ΓΙΑ EASYBYTEZ & UPLOADED
ΚΑΙ ΚΑΤΕΒΑΣΤΕ ΣΑΝ PREMIUM ΑΠΟ 20 ΔΙΑΦΟΡΕΤΙΚΟΥΣ HOST.

EasyBytez Premium Accounts

Για Uploaded απο Εδώ. http://ul.to/ref/3276399


Links Easybytez & Uploaded

Spoiler:

https://paste2.org/vk4XOpsP

https://pastebin.com/2AtqUA2Z

Αγαπητοί φίλοι πολλές φορές ίσως σε κάποια λίνκ σας βγάζει «Server error»
η προβληματικός πάροχος η σφάλμα plugin έχει λήξει.
Αυτό δεν σημαίνει απαραίτητα ότι τα λίνκ είναι νεκρά. Δοκιμάστε το εξής.
Πάρ΄τε τα λίνκ ή το μονό λίνκ και κατεβάστε το με Browser….Δεξί κλίκ στο λίνκ και άνοιγμα σε νέο παράθυρο…
Θα σας ανοίξει μία καρτελίτσα και εσείς θα πατήσετε αποθήκευση, όχι άνοιγμα…
Αυτόματά το λίνκ θα κατέβει και θα αποθηκευτεί στο φάκελο που εσείς έχετε επιλέξει.

Αφήστε μια απάντηση

Chat - Μόνο Εγγεγραμμένοι Χρήστες
You must be signed in to post a comment
Mr.Planet
(Πέμπτη, Απρ 19. 2018 03:51 ΜΜ)
μη χασει κανεις την ταινια RED SPARROW (2018) μακαρι να εβγαιναν τετειες ταινιες πιο συχνα!
Mr.Planet
(Τρίτη, Απρ 17. 2018 11:15 ΜΜ)
kost36 τωρα ειναι οκ, σε ευχαριστω.
kost36
(Τρίτη, Απρ 17. 2018 09:55 ΜΜ)
στο easybytez υπάρχουν μόνον τα parts 3,4 & 5 ενώ στο upload τα 1, 2 &3
ευχαριστώ
Mr.Planet
(Τρίτη, Απρ 17. 2018 09:29 ΠΜ)
καλημερα ntari22 σε ευχαριστω θα τοκοιταξω.
Mr.Planet
(Τρίτη, Απρ 17. 2018 09:28 ΠΜ)
Kαλημερα kost36. σαν τι μπερδεμα?

1 · 2 · 3 · 4 · 5