Kατηγορίες

Traffic at a Glance

Pageviews 80.426

Days in Range 30

Average Daily Pageviews 2.681

From Search Results 7.128

Unique IPs 8.152

Last 30 minutes 22

Today 354

Yesterday 3.240

PARADOX / SHA PO LANG TAAM LONG (2017) CHINESE BRRip XviD MP3-VXT {ΕΝΣΩΜ.ΥΠΟΤ}

ΣΚΗΝΟΘΕΣΙΑ : Wilson Yip
ΣΕΝΑΡΙΟ : Nick Cheuk (screenplay), Lai-Yin Leung
ΗΘΟΠΟΙΟΙ : Louis Koo, Yue Wu, Ka Tung Lam
ΕΙΔΟΣ : Action
ΠΡΕΜΙΕΡΑ : 25 August 2017 (Hong Kong)
ΜΕΤΑΦΡΑΣΗ : Raiden
iMDB: https://www.imdb.com/title/tt7245176/

Υπόθεση

O επιθεωρητής Λι Τσουνγκ Τσι μαθαίνει ότι η 16χρονη κόρη του, Γουίνγκ Τσι, έχει εξαφανιστεί στην Ταϊλάνδη. Μέσα στην απελπισία του, φεύγει από το Χονγκ Κονγκ για να τη βρει, και συνεργάζεται με τον Κινέζο αστυνομικό Τσούι Κιτ και τον συνάδελφό του, Τακ, καθώς έρχονται αντιμέτωποι με τον Αμερικανό γκάνγκστερ Σάτσα, ο οποίος λειτουργεί ένα δίκτυο λαθρεμπορίας ανθρώπινων οργάνων. Μια σειρά από ενδείξεις οδηγούν τον Τσουνγκ Τσι στην αποκάλυψη για τη μοίρα της κόρης του..

Spoiler:

Format : AVI
Format/Info : Audio Video Interleave
File size : 1.25 GiB
Duration : 1 h 39 min
Overall bit rate : 1 801 kb/s
Writing application : VirtualDubMod 1.5.10.2 (build 2542/release)
Writing library : VirtualDubMod build 2542/release

Video
ID : 0
Format : MPEG-4 Visual
Format profile : Advanced Simple@L5
Format settings, BVOP : 1
Format settings, QPel : No
Format settings, GMC : No warppoints
Format settings, Matrix : Default (H.263)
Muxing mode : Packed bitstream
Codec ID : XVID
Codec ID/Hint : XviD
Duration : 1 h 39 min
Bit rate : 1 599 kb/s
Width : 720 pixels
Height : 306 pixels
Display aspect ratio : 2.35:1
Frame rate : 24.000 FPS
Color space : YUV
Chroma subsampling : 4:2:0
Bit depth : 8 bits
Scan type : Progressive
Compression mode : Lossy
Bits/(Pixel*Frame) : 0.302
Stream size : 1.11 GiB (89%)
Writing library : XviD 64

Audio
ID : 1
Format : MPEG Audio
Format version : Version 1
Format profile : Layer 3
Mode : Joint stereo
Codec ID : 55
Codec ID/Hint : MP3
Duration : 1 h 39 min
Bit rate mode : Constant
Bit rate : 192 kb/s
Channel(s) : 2 channels
Sampling rate : 48.0 kHz
Compression mode : Lossy
Stream size : 137 MiB (11%)
Alignment : Aligned on interleaves
Interleave, duration : 42 ms (1.00 video frame)
Interleave, preload duratio : 504 ms
Writing library : LAME3.99.5


ΑΝ ΣΑΣ ΑΡΕΣΕΙ Η ΔΟΥΛΕΙΑ ΜΟΥ ΚΑΙ ΘΕΛΕΤΕ ΝΑ ΜΕ ΣΤΗΡΙΞΕΤΕ,
ΚΑΝΤΕ ΕΝΑ ΛΟΓΑΡΙΑΣΜΟ ΓΙΑ EASYBYTEZ & UPLOADED
ΚΑΙ ΚΑΤΕΒΑΣΤΕ ΣΑΝ PREMIUM ΑΠΟ 20 ΔΙΑΦΟΡΕΤΙΚΟΥΣ HOST.

EasyBytez Premium Accounts

Για Uploaded απο Εδώ. http://ul.to/ref/3276399


Links Easybytez & Uploaded

Spoiler:

https://paste2.org/HUFNdaPH

https://pastebin.com/NBVngvM0

Αγαπητοί φίλοι πολλές φορές ίσως σε κάποια λίνκ σας βγάζει «Server error»
η προβληματικός πάροχος η σφάλμα plugin έχει λήξει.
Αυτό δεν σημαίνει απαραίτητα ότι τα λίνκ είναι νεκρά. Δοκιμάστε το εξής.
Πάρ΄τε τα λίνκ ή το μονό λίνκ και κατεβάστε το με Browser….Δεξί κλίκ στο λίνκ και άνοιγμα σε νέο παράθυρο…
Θα σας ανοίξει μία καρτελίτσα και εσείς θα πατήσετε αποθήκευση, όχι άνοιγμα…
Αυτόματά το λίνκ θα κατέβει και θα αποθηκευτεί στο φάκελο που εσείς έχετε επιλέξει.

Αφήστε μια απάντηση

Chat - Μόνο Εγγεγραμμένοι Χρήστες
You must be signed in to post a comment
Mr.Planet
(Πέμπτη, Απρ 19. 2018 03:51 ΜΜ)
μη χασει κανεις την ταινια RED SPARROW (2018) μακαρι να εβγαιναν τετειες ταινιες πιο συχνα!
Mr.Planet
(Τρίτη, Απρ 17. 2018 11:15 ΜΜ)
kost36 τωρα ειναι οκ, σε ευχαριστω.
kost36
(Τρίτη, Απρ 17. 2018 09:55 ΜΜ)
στο easybytez υπάρχουν μόνον τα parts 3,4 & 5 ενώ στο upload τα 1, 2 &3
ευχαριστώ
Mr.Planet
(Τρίτη, Απρ 17. 2018 09:29 ΠΜ)
καλημερα ntari22 σε ευχαριστω θα τοκοιταξω.
Mr.Planet
(Τρίτη, Απρ 17. 2018 09:28 ΠΜ)
Kαλημερα kost36. σαν τι μπερδεμα?

1 · 2 · 3 · 4 · 5