Kατηγορίες

Traffic at a Glance

Pageviews 80.667

Days in Range 30

Average Daily Pageviews 2.689

From Search Results 7.164

Unique IPs 8.192

Last 30 minutes 65

Today 595

Yesterday 3.240

TELLE MERE, TELLE FILLE (2017) FRENCH HDRip XviD-GZR {ΕΝΣΩΜ.ΥΠΟΤ}

ΣΚΗΝΟΘΕΣΙΑ : Noemie Saglio
ΣΕΝΑΡΙΟ : Agathe Pastorino (adaptation), Agathe Pastorino (dialogue)
ΗΘΟΠΟΙΟΙ : Juliette Binoche, Camille Cottin, Lambert Wilson
ΕΙΔΟΣ : Comedy
ΠΡΕΜΙΕΡΑ : 21 September 2017 (Greece)
ΜΕΤΑΦΡΑΣΗ : Μελισσάνθη Γιαννούση
iMDB: https://www.imdb.com/title/tt5975354/

Υπόθεση

Η τριαντάχρονη Αβρίλ ζει με τον σύντροφό της κι είναι control freak, από ανάγκη: φιλοξενεί, φροντίζει και πειθαρχεί την ατίθαση μητέρα της, τη Μαντό, που παραμένει η αιώνια και μάλλον ενοχλητική έφηβη. Η Μαντό είναι ακατάστατη, ξενυχτά, πίνει, καπνίζει και ζαμανφού. Η Αβρίλ δουλεύει, οργανώνει το σπίτι, μαγειρεύει και διατηρεί μια τάξη στη ζωή τους. Οταν η Αβρίλ μένει έγκυος, είδηση χαρμόσυνη, η ευτυχία της αναστατώνεται από την είδηση ότι παράλληλα και τυχαία, είναι έγκυος και η μαμά / γιαγιά Μαντό..

Spoiler:

Format : AVI
Format/Info : Audio Video Interleave
File size : 698 MiB
Duration : 1 h 33 min
Overall bit rate : 1 040 kb/s
Writing application : VirtualDubMod 1.5.10.2 (build 2542/release)
Writing library : VirtualDubMod build 2542/release

Video
ID : 0
Format : MPEG-4 Visual
Format profile : Advanced Simple@L5
Format settings, BVOP : 1
Format settings, QPel : No
Format settings, GMC : No warppoints
Format settings, Matrix : Default (H.263)
Muxing mode : Packed bitstream
Codec ID : XVID
Codec ID/Hint : XviD
Duration : 1 h 33 min
Bit rate : 902 kb/s
Width : 720 pixels
Height : 300 pixels
Display aspect ratio : 2.40:1
Frame rate : 24.000 FPS
Color space : YUV
Chroma subsampling : 4:2:0
Bit depth : 8 bits
Scan type : Progressive
Compression mode : Lossy
Bits/(Pixel*Frame) : 0.174
Stream size : 606 MiB (87%)
Writing library : XviD 64

Audio
ID : 1
Format : MPEG Audio
Format version : Version 1
Format profile : Layer 3
Mode : Joint stereo
Mode extension : MS Stereo
Codec ID : 55
Codec ID/Hint : MP3
Duration : 1 h 33 min
Bit rate mode : Constant
Bit rate : 128 kb/s
Channel(s) : 2 channels
Sampling rate : 48.0 kHz
Compression mode : Lossy
Stream size : 86.0 MiB (12%)
Alignment : Aligned on interleaves
Interleave, duration : 42 ms (1.00 video frame)
Interleave, preload duratio : 504 ms


ΑΝ ΣΑΣ ΑΡΕΣΕΙ Η ΔΟΥΛΕΙΑ ΜΟΥ ΚΑΙ ΘΕΛΕΤΕ ΝΑ ΜΕ ΣΤΗΡΙΞΕΤΕ,
ΚΑΝΤΕ ΕΝΑ ΛΟΓΑΡΙΑΣΜΟ ΓΙΑ EASYBYTEZ & UPLOADED
ΚΑΙ ΚΑΤΕΒΑΣΤΕ ΣΑΝ PREMIUM ΑΠΟ 20 ΔΙΑΦΟΡΕΤΙΚΟΥΣ HOST.

EasyBytez Premium Accounts

Για Uploaded απο Εδώ. http://ul.to/ref/3276399


Links Easybytez & Uploaded

Spoiler:

https://paste2.org/14G0tCLd

https://pastebin.com/BwsL3QhR

Αγαπητοί φίλοι πολλές φορές ίσως σε κάποια λίνκ σας βγάζει «Server error»
η προβληματικός πάροχος η σφάλμα plugin έχει λήξει.
Αυτό δεν σημαίνει απαραίτητα ότι τα λίνκ είναι νεκρά. Δοκιμάστε το εξής.
Πάρ΄τε τα λίνκ ή το μονό λίνκ και κατεβάστε το με Browser….Δεξί κλίκ στο λίνκ και άνοιγμα σε νέο παράθυρο…
Θα σας ανοίξει μία καρτελίτσα και εσείς θα πατήσετε αποθήκευση, όχι άνοιγμα…
Αυτόματά το λίνκ θα κατέβει και θα αποθηκευτεί στο φάκελο που εσείς έχετε επιλέξει.

Αφήστε μια απάντηση

Chat - Μόνο Εγγεγραμμένοι Χρήστες
You must be signed in to post a comment
Mr.Planet
(Πέμπτη, Απρ 19. 2018 03:51 ΜΜ)
μη χασει κανεις την ταινια RED SPARROW (2018) μακαρι να εβγαιναν τετειες ταινιες πιο συχνα!
Mr.Planet
(Τρίτη, Απρ 17. 2018 11:15 ΜΜ)
kost36 τωρα ειναι οκ, σε ευχαριστω.
kost36
(Τρίτη, Απρ 17. 2018 09:55 ΜΜ)
στο easybytez υπάρχουν μόνον τα parts 3,4 & 5 ενώ στο upload τα 1, 2 &3
ευχαριστώ
Mr.Planet
(Τρίτη, Απρ 17. 2018 09:29 ΠΜ)
καλημερα ntari22 σε ευχαριστω θα τοκοιταξω.
Mr.Planet
(Τρίτη, Απρ 17. 2018 09:28 ΠΜ)
Kαλημερα kost36. σαν τι μπερδεμα?

1 · 2 · 3 · 4 · 5